<?xml version="1.0" standalone="no"?>
<!DOCTYPE svg PUBLIC "-//W3C//DTD SVG 1.1//EN" "http://www.w3.org/Graphics/SVG/1.1/DTD/svg11.dtd" >
<svg xmlns="http://www.w3.org/2000/svg">
<metadata>
This is a custom SVG webfont generated by Font Squirrel.
</metadata>
<defs>
<font id="ITCFranklinGothicStdDemiIt" horiz-adv-x="1202" >
<font-face units-per-em="2048" ascent="1405" descent="-643" />
<missing-glyph horiz-adv-x="593" />
<glyph unicode=" "  horiz-adv-x="593" />
<glyph unicode="&#x09;" horiz-adv-x="593" />
<glyph unicode="&#xa0;" horiz-adv-x="593" />
<glyph unicode="!" horiz-adv-x="589" d="M59 0l52 303h301l-50 -303h-303zM188 412l52 954h350l-242 -954h-160z" />
<glyph unicode="&#x22;" horiz-adv-x="903" d="M223 805l60 561h235l-131 -561h-164zM580 805l57 561h235l-129 -561h-163z" />
<glyph unicode="#" d="M94 420l45 198h217l37 156h-215l45 199h215l90 393h199l-90 -393h143l90 393h201l-90 -393h190l-45 -199h-190l-35 -156h193l-45 -198h-193l-96 -420h-203l96 420h-143l-96 -420h-199l96 420h-217zM543 618h155l37 156h-157z" />
<glyph unicode="$" d="M51 401l268 64q2 -16 6.5 -35.5t14.5 -41t27.5 -43t46.5 -40.5q33 -23 81 -37t121 -14q12 0 43 2t62 16.5t54.5 45t23.5 85.5q0 39 -28 75t-116 59q-88 20 -144 35.5t-96 29.5t-68 31.5t-56 46.5q-33 29 -54.5 63.5t-34 70.5t-17.5 68.5t-5 57.5q0 45 13.5 94t41 95.5 t68.5 86t96 68.5q78 39 147.5 46t117.5 9l28 170h164l-29 -184q86 -16 146.5 -54t100.5 -81t62.5 -84t34.5 -66l-235 -108q-6 18 -19.5 49t-43 61.5t-80 52t-129.5 21.5q-47 0 -79 -11t-53 -28q-33 -29 -39 -62.5t-6 -47.5q0 -35 13.5 -56.5t45.5 -39t82 -30.5l124 -32 q100 -23 172.5 -53.5t128.5 -102.5q72 -96 71 -217q0 -98 -46 -194.5t-156 -157.5q-43 -25 -87 -39t-84 -20.5t-73 -7.5t-55 -1l-37 -215h-164l39 228q-53 2 -98.5 19.5t-80 36.5t-56 35.5t-23.5 18.5q-37 33 -62.5 69t-43 70.5t-27.5 66.5z" />
<glyph unicode="%" horiz-adv-x="1730" d="M141 952q0 88 28 166t77 135.5t114.5 90t141.5 32.5q49 0 103 -18.5t100.5 -60.5t77 -109.5t30.5 -167.5q0 -66 -24.5 -138.5t-70.5 -133t-112.5 -99.5t-152.5 -39q-70 0 -127.5 27t-98.5 73t-63.5 108t-22.5 134zM283 0l1036 1370h190l-1038 -1370h-188zM377 909 q0 -16 2 -36.5t9 -39t23.5 -31.5t47.5 -13q41 0 59.5 25.5t26.5 47.5q4 12 9 38l10 54.5t8 54t3 35.5q1 34 2 53v15q-1 16 -8 35q-8 20 -24.5 35.5t-44.5 15.5q-25 0 -49.5 -14.5t-36.5 -48.5q-6 -16 -12.5 -43t-12.5 -57.5t-9 -62.5t-3 -63zM977 328q0 88 27.5 165.5 t76.5 135t115 90.5t141 33q49 0 103.5 -18.5t100.5 -60.5t77 -109.5t31 -168.5q0 -66 -25 -138.5t-71 -133t-112.5 -99t-152.5 -38.5q-70 0 -127 26.5t-98 72.5t-63.5 108.5t-22.5 134.5zM1212 285q0 -16 2.5 -37t9.5 -39.5t23.5 -31.5t46.5 -13q41 0 59.5 25.5t26.5 48.5 q4 12 9.5 37.5t10.5 54t8 54.5t3 36q1 34 1 53v14q-1 16 -7 35q-8 20 -24.5 35.5t-45.5 15.5q-25 0 -49 -14t-37 -49q-6 -16 -12 -43t-12 -57.5t-9.5 -62t-3.5 -62.5z" />
<glyph unicode="&#x26;" horiz-adv-x="1466" d="M37 373q0 94 41 170t98 123q66 55 132.5 80.5t146.5 48.5q-29 47 -59.5 107.5t-30.5 141.5q0 63 24.5 126t74.5 112t130 79t190 30q113 0 190 -29t123 -75t66.5 -101t20.5 -109q0 -94 -39 -157.5t-93.5 -105.5t-113.5 -65.5t-98 -35.5l166 -226q57 53 103 129t75 166 l274 -41q-59 -137 -142 -249.5t-169 -190.5q16 -20 44 -40.5t85 -20.5q25 0 49.5 3t50.5 7l-28 -240q-41 -6 -77 -10t-77 -4q-55 0 -96 13.5t-70 32.5t-49.5 40.5t-34.5 40.5q-27 -20 -65.5 -46t-91 -48.5t-119 -38t-152.5 -15.5q-119 0 -208 34t-149.5 89.5t-91 127 t-30.5 147.5zM354 383q0 -45 16.5 -78t44 -53.5t60.5 -30.5t68 -10q72 0 136 23.5t122 64.5l-226 317q-21 -6 -57.5 -19t-73 -40t-63.5 -69t-27 -105zM641 1063q0 -49 32 -100.5t60 -87.5l52 17q34 11 68 33.5t58.5 55.5t24.5 82q0 39 -16.5 64.5t-40 40t-49 19.5t-42.5 5 q-66 0 -106.5 -38t-40.5 -91z" />
<glyph unicode="'" horiz-adv-x="505" d="M213 805l59 561h236l-131 -561h-164z" />
<glyph unicode="(" horiz-adv-x="673" d="M63 401q0 143 38 274.5t103.5 251.5t152.5 229.5t186 209.5h192l-56 -63q-34 -39 -74 -95.5t-82 -129t-81 -165.5q-47 -111 -72.5 -223t-38 -204.5t-15.5 -157t-3 -80.5q0 -109 16.5 -203t39 -171t48.5 -135l42 -95h-166q-29 51 -77 150t-93 247q-23 72 -41.5 166 t-18.5 194z" />
<glyph unicode=")" horiz-adv-x="673" d="M-63 -356q20 20 55 59t74.5 96.5t83 131t81.5 165.5q47 113 73 226.5t38 207t15 157t3 75.5q0 129 -22.5 232.5t-36.5 150.5q-18 61 -38.5 110.5t-49.5 110.5h168q29 -53 77 -151.5t91 -243.5q23 -72 42 -167t19 -198q0 -141 -37.5 -272t-102 -251t-152 -229.5 t-187.5 -209.5h-194z" />
<glyph unicode="*" horiz-adv-x="983" d="M180 1081l74 142l262 -148l39 299l158 -26l-60 -295l297 55l23 -158l-299 -35l145 -264l-143 -71l-127 274l-207 -219l-111 113l222 204z" />
<glyph unicode="+" d="M125 580v219h395v411h219v-411h398v-219h-398v-412h-219v412h-395z" />
<glyph unicode="," horiz-adv-x="542" d="M-16 -313l194 313h-147l53 309h311l-47 -276l-246 -346h-118z" />
<glyph unicode="-" horiz-adv-x="473" d="M-18 393l36 223h474l-37 -223h-473z" />
<glyph unicode="." horiz-adv-x="542" d="M31 0l53 309h311l-53 -309h-311z" />
<glyph unicode="/" horiz-adv-x="905" d="M-236 -356l1039 1722h184l-1034 -1722h-189z" />
<glyph unicode="0" d="M92 580q0 70 12.5 156.5t41 178t74.5 177.5t111.5 154.5t153.5 109.5t201 41q119 0 210 -45t151.5 -125t91 -187.5t30.5 -232.5q0 -92 -8 -153.5t-18 -102.5q-27 -115 -73 -219.5t-114.5 -183t-161 -126t-210.5 -47.5q-133 0 -226.5 53.5t-152 138.5t-86 193.5 t-27.5 219.5zM403 494q0 -43 4.5 -93.5t23 -92.5t56 -70.5t105.5 -28.5q96 0 148.5 85t82.5 257q16 82 25.5 163t9.5 163q0 35 -3 84t-19.5 94t-54.5 76.5t-105 31.5q-76 0 -120 -43t-71 -114q-25 -68 -41 -138.5t-25 -138t-12.5 -128t-3.5 -107.5z" />
<glyph unicode="1" d="M74 0l45 260h358l129 778q-41 -39 -85 -59.5t-91 -29.5t-97 -10h-34q-34 0 -68 1l43 254h18q107 0 183 23q82 25 135.5 59.5t83 69t43.5 55.5h230l-189 -1141h363l-43 -260h-1024z" />
<glyph unicode="2" d="M12 0l39 297l144 88l155 98l160 105q80 53 154 108q53 41 87.5 77t54 67.5t28 62.5t8.5 60q0 43 -15.5 74.5t-42 53t-59.5 33t-68 11.5q-53 0 -94 -21.5t-70.5 -56.5t-49 -80t-29.5 -92l-281 65q39 143 106.5 231.5t144.5 136.5t152.5 64.5t135.5 16.5q106 0 196 -33 t157 -90t103.5 -137t36.5 -172q0 -39 -7 -87.5t-33.5 -102.5t-77 -111.5t-136.5 -114.5q-53 -35 -118.5 -73t-136.5 -75l-143 -73l-140 -72h690l-39 -258h-1012z" />
<glyph unicode="3" d="M20 381l267 51q8 -27 22.5 -62.5t50.5 -74.5q27 -31 55.5 -46.5t55.5 -23.5t47.5 -9t30.5 -1q59 0 101 16.5t70 43t40 61.5t12 70q0 47 -25.5 96t-84.5 71q-27 10 -62 13.5t-94 3.5h-103l33 231h146q59 0 102 7.5t78 29.5q31 20 49 58t18 79q0 82 -58 123t-132 41 q-57 0 -97 -18.5t-65.5 -44t-42 -54t-24.5 -47.5l-269 74q16 41 47 95.5t99 111.5q51 43 104 67.5t101.5 37t89.5 15.5t69 3q98 0 187.5 -23.5t157 -71t107.5 -117t40 -163.5q0 -35 -10.5 -84t-40 -97t-82 -88t-138.5 -57q29 -10 72 -33.5t84 -76.5q35 -47 50.5 -98.5 t15.5 -102.5q0 -70 -30 -143.5t-93.5 -135t-162.5 -101.5t-239 -40q-39 0 -87 4t-101 19.5t-108.5 45.5t-108.5 81q-78 76 -106 145.5t-38 118.5z" />
<glyph unicode="4" d="M37 315l41 250l653 819h363l-138 -827h205l-41 -242h-205l-53 -315h-307l53 315h-571zM297 547h360l93 553z" />
<glyph unicode="5" d="M53 360l303 48q14 -63 48 -98.5t71 -52.5t68.5 -20.5t44.5 -3.5q63 0 107 21.5t72 54.5t41 74t13 82q0 96 -59.5 149.5t-145.5 53.5q-66 0 -116.5 -30t-87.5 -81l-258 88l172 721h874l-72 -268h-602l-75 -316l31 33q19 20 52 38.5t77 32t106 13.5q82 0 158.5 -29.5 t135 -84t94.5 -132.5t36 -174q0 -102 -40 -193t-114 -159t-176 -107.5t-227 -39.5q-129 0 -246 47t-199 145q-43 51 -60.5 101t-25.5 87z" />
<glyph unicode="6" d="M109 575q0 82 14 175.5t45 183.5t80 173t118.5 146.5t160.5 101.5t206 38q100 0 180 -30t138.5 -83t92.5 -125t44 -158l-270 -22q-6 59 -27 96t-47.5 58.5t-57 28.5t-57.5 7q-49 0 -86 -16t-64.5 -42t-47 -58.5t-33.5 -63.5q-6 -14 -17.5 -43t-21.5 -67.5t-19.5 -85 t-13.5 -97.5q12 20 34.5 51t57.5 59.5t86 49t123 20.5q90 0 166 -33.5t131 -90t86 -132t31 -161.5q0 -74 -28 -158t-87 -154.5t-154.5 -116.5t-230.5 -46q-109 0 -206 35.5t-169.5 109.5t-114.5 186t-42 264zM422 422q0 -51 18.5 -90t49 -64.5t68.5 -39t77 -13.5 q74 0 124 40t70 99q10 29 11.5 56.5t1.5 31.5q0 39 -14.5 76t-41 65.5t-64.5 45t-83 16.5q-43 0 -83 -16.5t-69.5 -45t-47 -70.5t-17.5 -91z" />
<glyph unicode="7" d="M197 1106l47 260h962l-22 -219q-68 -57 -176.5 -187.5t-212.5 -326.5q-68 -125 -120 -284t-69 -349h-360q29 199 105.5 382t191.5 349q55 80 114.5 146.5t111.5 115.5t88 79t44 34h-704z" />
<glyph unicode="8" d="M49 330q0 37 13.5 86t49 98t99 93t164.5 69q-29 16 -66 45t-69 82q-12 23 -28.5 63.5t-16.5 98.5q0 66 31.5 138.5t97 133.5t167 101t240.5 40q100 0 183 -22.5t143.5 -63.5t93.5 -99t33 -130q0 -80 -36 -138.5t-83 -96t-95 -60.5t-75 -31l67 -37q40 -23 75.5 -59.5 t61 -89.5t25.5 -129q0 -90 -38.5 -168t-111.5 -136.5t-175.5 -92t-229.5 -33.5q-84 0 -175 16.5t-167.5 54t-127 103.5t-50.5 164zM309 377q0 -45 21.5 -81t59.5 -60.5t88 -37t110 -12.5q43 0 87 8.5t80 29t58.5 52t22.5 78.5q0 80 -84 130.5t-232 105.5q-61 -14 -102 -41 t-65.5 -57.5t-34 -61t-9.5 -53.5zM473 1047q0 -78 75 -132.5t216 -97.5q19 8 47.5 22.5t54 38t45 57.5t19.5 81q0 33 -13.5 65.5t-42 59t-72.5 43t-108 16.5q-104 0 -162.5 -43.5t-58.5 -109.5z" />
<glyph unicode="9" d="M51 299l279 61q4 -16 13 -39.5t29.5 -46t53.5 -39t86 -16.5q82 0 137.5 42t93 110.5t62 157.5t43.5 184q-14 -25 -37 -59.5t-59.5 -66.5t-90 -55.5t-129.5 -23.5q-78 0 -150.5 27.5t-130.5 81t-93 130t-35 173.5q0 82 32.5 165.5t96 151.5t158 111t217.5 43 q135 0 233 -47.5t162.5 -127t95.5 -185t31 -224.5q0 -70 -14.5 -158t-45 -179t-81 -179t-122 -156.5t-167.5 -110.5t-217 -42q-29 0 -69 4t-85 17t-92 36.5t-90 62.5q-57 53 -79 102.5t-36 94.5zM426 942q0 -84 54.5 -143.5t144.5 -59.5q80 0 130 42t70 96q10 29 12.5 54 t2.5 30q0 39 -15.5 74.5t-41 63t-62.5 44t-80 16.5q-92 0 -153.5 -62.5t-61.5 -154.5z" />
<glyph unicode=":" horiz-adv-x="542" d="M31 0l53 309h311l-53 -309h-311zM147 694l52 310h311l-51 -310h-312z" />
<glyph unicode=";" horiz-adv-x="542" d="M-16 -313l194 313h-147l53 309h311l-47 -276l-246 -346h-118zM147 694l52 310h311l-51 -310h-312z" />
<glyph unicode="&#x3c;" d="M190 567v236l887 459v-281l-590 -297l590 -297v-278z" />
<glyph unicode="=" d="M125 381v219h1010v-219h-1010zM125 758v219h1010v-219h-1010z" />
<glyph unicode="&#x3e;" d="M190 109v280l588 297l-588 297v279l887 -459v-236z" />
<glyph unicode="?" horiz-adv-x="1030" d="M115 1028q51 184 181 292q130 110 310 110q92 0 174 -28t143.5 -79t97.5 -125t36 -168q0 -66 -17.5 -118t-46 -93t-63.5 -72.5t-70 -54.5q-84 -51 -130 -81.5t-70.5 -57.5t-33 -57.5t-14.5 -81.5h-254q8 70 15.5 120t24 91t46 75.5t82.5 73.5l106 82q42 33 66.5 59.5 t34.5 52t10 60.5q0 80 -49 117t-106 37q-51 0 -87 -22.5t-61.5 -56.5t-40 -73t-22.5 -69zM276 0l52 305h305l-51 -305h-306z" />
<glyph unicode="@" horiz-adv-x="1583" d="M109 668q0 160 60 295t162.5 234t241 154.5t291.5 55.5q147 0 272.5 -49t217.5 -134t143 -199t51 -243q0 -98 -31.5 -189t-88 -159.5t-133 -109.5t-165.5 -41q-10 0 -29.5 1t-45 9t-53 25.5t-52.5 50.5q-8 -10 -23.5 -24.5t-39 -30t-55 -25.5t-70.5 -10 q-59 0 -109.5 25.5t-87.5 71.5t-58.5 110.5t-21.5 142.5q0 94 29 171t78 130t111.5 82.5t130.5 29.5q59 0 91.5 -18t63.5 -41l12 43h189l-70 -424q-4 -24 -9 -50t-5 -46q0 -16 13.5 -27.5t31.5 -11.5q39 0 78 23.5t69.5 64.5t49 97.5t18.5 123.5q0 98 -39 183t-107.5 147.5 t-161.5 98.5t-202 36q-115 0 -215 -44t-174 -120t-116 -179t-42 -222q0 -166 78 -296t213 -200q27 -14 100.5 -34.5t192.5 -20.5q61 0 110.5 6t94.5 17.5t89 27.5l95 37l59 -164l-73.5 -31.5t-73.5 -23.5q-49 -14 -132 -28.5t-194 -14.5q-203 0 -346 66.5t-235 170 t-135 230.5t-43 250zM686 631q0 -59 22.5 -109.5t75.5 -50.5q33 0 65 19.5t56.5 51t39.5 74.5t15 91q0 72 -39.5 107.5t-84.5 35.5q-66 0 -108 -62.5t-42 -156.5z" />
<glyph unicode="A" horiz-adv-x="1259" d="M-72 0l650 1366h374l230 -1366h-326l-43 301h-457l-131 -301h-297zM459 539h321l-82 546z" />
<glyph unicode="B" horiz-adv-x="1341" d="M51 0l228 1366h587q121 0 216.5 -24.5t158.5 -108.5q43 -57 54.5 -114.5t11.5 -92.5q0 -94 -34 -153.5t-82 -94.5t-100.5 -52t-91.5 -26q29 -8 71 -24.5t82 -50t68.5 -88t28.5 -138.5q0 -109 -47 -188.5t-110 -126.5q-59 -41 -152.5 -62.5t-210.5 -21.5h-678zM406 244 h276q123 0 179.5 51t56.5 123q0 63 -27 97t-65 49.5t-81 18.5t-73 3h-209zM502 817h215h68q28 0 49.5 3t40 9.5t36.5 18.5q33 20 49.5 56t16.5 79q0 57 -24.5 89t-57.5 46.5t-68.5 16.5t-56.5 2h-215z" />
<glyph unicode="C" horiz-adv-x="1273" d="M94 573q0 125 38 268.5t118 265.5t205 203t301 81q43 0 107.5 -10.5t132 -41t130 -88t101.5 -151.5q31 -78 37 -138.5t10 -109.5l-311 -14q1 17 0 33q0 60 -12 105q-15 56 -43.5 90t-68.5 49t-83 15q-57 0 -97.5 -19t-68 -47t-44 -59.5t-26.5 -54.5q-25 -57 -55.5 -169.5 t-30.5 -260.5q0 -18 3 -65t24.5 -95.5t67.5 -85t130 -36.5q72 0 120 26.5t79 64.5t48.5 82t29.5 78l281 -49q-45 -135 -110 -225t-141.5 -143.5t-161.5 -75t-169 -21.5q-109 0 -189.5 28t-141 75t-100.5 108.5t-64.5 128t-35 133t-10.5 125.5z" />
<glyph unicode="D" horiz-adv-x="1337" d="M51 0l230 1366h401q176 0 283.5 -46t183.5 -140q72 -94 104.5 -207t32.5 -232q0 -115 -23.5 -211t-61.5 -173.5t-85 -135t-94 -96.5q-59 -47 -117.5 -72.5t-120 -37t-124 -13.5t-130.5 -2h-479zM393 242h164q20 0 55 2t76 11t83 30.5t75 62.5q61 74 91 188.5t30 227.5 q0 80 -15.5 145.5t-49.5 113.5t-88 74.5t-134 26.5h-139z" />
<glyph unicode="E" horiz-adv-x="1169" d="M51 0l230 1366h960l-43 -260h-641l-47 -281h537l-41 -247h-537l-55 -318h653l-43 -260h-973z" />
<glyph unicode="F" horiz-adv-x="1089" d="M51 0l230 1366h925l-43 -260h-612l-51 -305h520l-43 -260h-508l-90 -541h-328z" />
<glyph unicode="G" horiz-adv-x="1347" d="M94 563q0 154 43 302.5t128 265t212 189.5t297 73q96 0 182 -27t154 -82t115 -140t67 -200l-295 -47q-4 25 -14 66t-34.5 80.5t-68.5 68.5t-116 29q-63 0 -111.5 -27t-83 -66.5t-58.5 -88t-38 -91.5q-12 -37 -22.5 -82t-18.5 -91t-12 -89t-4 -76q0 -31 5 -65.5 t16.5 -68.5t30.5 -64.5t50 -50.5q20 -14 43 -22.5t43.5 -12.5t37.5 -5t26 -1q74 0 123 29.5t78.5 69.5t44 81t20.5 63h-281l41 248h574l-123 -741h-127l-37 184q-23 -29 -53.5 -61.5t-74.5 -62.5t-104.5 -49t-142.5 -19q-123 0 -218 44t-160.5 122.5t-99.5 185t-34 229.5z " />
<glyph unicode="H" horiz-adv-x="1314" d="M51 0l230 1366h299l-88 -537h440l90 537h299l-227 -1366h-301l96 569h-440l-97 -569h-301z" />
<glyph unicode="I" horiz-adv-x="587" d="M51 0l230 1366h313l-227 -1366h-316z" />
<glyph unicode="J" horiz-adv-x="798" d="M-68 0l37 242q76 -12 131 -13q53 0 98.5 7.5t77.5 29.5q20 14 34 31.5t25 55.5t23.5 104.5t30.5 177.5l121 731h309l-157 -948l-20 -105q-9 -49 -26.5 -92t-45 -81t-70.5 -68q-66 -47 -146 -71t-196 -24q-74 0 -126.5 7.5t-99.5 15.5z" />
<glyph unicode="K" horiz-adv-x="1280" d="M51 0l230 1366h299l-107 -643l22 28l32 41l33 41l22 27l436 506h321l-432 -492l264 -874h-323l-172 635l-268 -307l-56 -328h-301z" />
<glyph unicode="L" horiz-adv-x="1001" d="M51 0l230 1366h313l-184 -1106h536l-43 -260h-852z" />
<glyph unicode="M" horiz-adv-x="1767" d="M51 0l230 1366h479l121 -836l399 836h496l-230 -1366h-319l192 1143l-551 -1143h-182l-182 1155l-195 -1155h-258z" />
<glyph unicode="N" horiz-adv-x="1335" d="M51 0l230 1366h346l327 -834l11 71l18 122l19 125l14 84l71 432h254l-227 -1366h-256l-397 989q-4 -47 -11.5 -106.5t-16.5 -123t-19 -124.5l-19 -113l-86 -522h-258z" />
<glyph unicode="O" horiz-adv-x="1316" d="M96 571q0 141 39 285.5t119 262.5t199.5 192.5t283.5 74.5q123 0 222.5 -41.5t170 -120.5t109.5 -190.5t39 -251.5q0 -113 -13.5 -186.5t-33.5 -130.5q-25 -76 -70 -161t-115.5 -157.5t-172 -119.5t-240.5 -47q-123 0 -222.5 43t-169 120.5t-107.5 186t-38 241.5z M410 526q0 -53 9 -106t35.5 -95t71.5 -68t119 -26q66 0 112 27t77.5 69t51 91t32.5 92q14 53 24 96t15.5 80t7.5 72t2 69q0 27 -3 79t-24.5 102.5t-68 88.5t-132.5 38q-78 0 -132 -40t-91 -101.5t-58.5 -135.5t-31.5 -141.5t-13 -120t-3 -70.5z" />
<glyph unicode="P" horiz-adv-x="1228" d="M51 0l230 1366h487q82 0 169 -9t165 -61q88 -59 125 -148t37 -175q0 -100 -38 -192.5t-93 -143.5q-49 -45 -96.5 -69.5t-94.5 -37t-96 -15.5t-105 -3h-290l-86 -512h-314zM492 752h235q74 0 119 20.5t69.5 50t33.5 64.5t9 63q0 63 -27.5 99t-66.5 51.5t-80 18.5t-67 3 h-164z" />
<glyph unicode="Q" horiz-adv-x="1327" d="M90 578q0 74 14.5 161.5t45 178t81 174.5t122 149.5t167.5 105.5t219 40q150 0 254.5 -54.5t169 -140.5t93 -192.5t28.5 -211.5q0 -121 -25.5 -234.5t-75.5 -210.5t-123 -173t-167 -119q6 -51 39 -68.5t106 -17.5q31 0 52.5 1t56.5 5l-12 -227q-29 -4 -71 -7t-81 -3 q-150 0 -216 71q-59 64 -59 159q0 12 1 24q-35 -6 -60 -6q-14 -2 -24 -2h-21q-98 0 -190 36.5t-164 110.5t-116 186.5t-44 264.5zM401 526q0 -24 4.5 -73.5t27 -98.5t69.5 -86t135 -37q104 0 169.5 66t113.5 209q23 74 36 154.5t13 160.5q0 29 -4 82t-25.5 104.5t-68 89.5 t-132.5 38q-152 0 -227 -136q-29 -47 -49.5 -107.5t-33.5 -125t-20.5 -127t-7.5 -113.5z" />
<glyph unicode="R" horiz-adv-x="1345" d="M51 0l228 1366h505q76 0 134.5 -5t102.5 -16.5t79 -29t63 -41.5q72 -61 104.5 -144t32.5 -159q0 -86 -34.5 -164t-91.5 -129q-47 -41 -93.5 -58.5t-87.5 -27.5l170 -592h-317l-144 543h-253l-93 -543h-305zM481 778h203q43 0 73.5 1t54.5 4t43 9.5t40 16.5q39 18 63.5 60 t24.5 96q0 61 -25.5 94t-62.5 48t-77 17t-70 2h-207z" />
<glyph unicode="S" horiz-adv-x="1175" d="M-6 389l293 39q4 -18 16 -53t41 -68t81 -57.5t138 -24.5q63 0 105.5 15.5t67 39t34.5 51t10 54.5q0 37 -14 61.5t-43 42t-75 32t-107 30.5q-53 14 -124 37.5t-134.5 66.5t-106.5 113t-43 178q0 68 25.5 145.5t84 143t152.5 108.5t230 43q104 0 201.5 -30.5t174.5 -100.5 q66 -59 93.5 -118.5t42.5 -106.5l-279 -65q-6 18 -18.5 46.5t-38 56.5t-67.5 47.5t-109 19.5q-96 0 -141.5 -44t-45.5 -96q0 -37 15.5 -60.5t42 -39.5t62.5 -26.5t77 -20.5q82 -20 164 -47t148.5 -72t108.5 -117.5t42 -185.5q0 -80 -30 -161t-94.5 -145.5t-168 -105.5 t-250.5 -41q-178 0 -285.5 51.5t-166 121t-80 138t-29.5 105.5z" />
<glyph unicode="T" horiz-adv-x="1001" d="M100 1106l43 260h1002l-43 -260h-344l-185 -1106h-313l184 1106h-344z" />
<glyph unicode="U" horiz-adv-x="1316" d="M113 381q0 14 2 51t10 84l141 850h336l-133 -799q-4 -23 -9 -63.5t-5 -85.5q0 -25 8 -63t51 -66.5t88 -35.5t70 -7q18 0 52 4t69.5 18.5t66.5 44t45 82.5q4 14 7 27.5t8 38.5l11 65l19 111l121 729h270l-127 -764l-23 -142q-9 -54 -18.5 -91t-19.5 -63.5t-25 -59.5 q-39 -80 -98 -130t-127.5 -80t-142.5 -40t-139 -10q-16 0 -56.5 2t-91.5 11t-107.5 27.5t-105.5 53.5q-25 18 -51.5 47t-48 66.5t-34.5 85t-13 102.5z" />
<glyph unicode="V" horiz-adv-x="1124" d="M117 1366h313l133 -1022l441 1022h270l-627 -1366h-330z" />
<glyph unicode="W" horiz-adv-x="1814" d="M143 1366h314l86 -946l360 946h285l115 -946l356 946h278l-559 -1366h-295l-120 952l-367 -952h-291z" />
<glyph unicode="X" horiz-adv-x="1220" d="M-92 0l551 729l-291 637h338l188 -428l293 428h305l-479 -637l330 -729h-342l-221 516l-357 -516h-315z" />
<glyph unicode="Y" horiz-adv-x="1085" d="M76 1366h340l209 -541l354 541h299l-549 -793l-96 -573h-314l97 573z" />
<glyph unicode="Z" horiz-adv-x="1173" d="M-43 0l37 221l797 893q-66 -2 -108 -4t-76 -3t-65 -1h-77h-297l43 260h1012l-31 -209l-799 -903q43 0 97 1l111 2l111 2q54 1 97 1h281l-43 -260h-1090z" />
<glyph unicode="[" horiz-adv-x="673" d="M-8 -356l289 1722h405l-20 -125h-222l-247 -1474h223l-21 -123h-407z" />
<glyph unicode="\" horiz-adv-x="905" d="M201 1366h172l463 -1722h-177z" />
<glyph unicode="]" horiz-adv-x="673" d="M-14 -356l20 125h225l246 1474h-223l20 123h408l-289 -1722h-407z" />
<glyph unicode="^" d="M141 535l342 870h254l348 -870h-231l-242 612l-239 -612h-232z" />
<glyph unicode="_" horiz-adv-x="1024" d="M0 -154h1024v-102h-1024v102z" />
<glyph unicode="`" horiz-adv-x="1024" d="M350 1358l92 155l359 -241l-62 -111z" />
<glyph unicode="a" horiz-adv-x="1107" d="M23 250q0 86 35.5 148.5t93 103.5t131 66.5t149.5 39t149 18.5l130 9q6 16 12 38.5t6 53.5q0 57 -37 89t-96 32q-55 0 -90 -16.5t-58.5 -40t-36 -51t-20.5 -48.5l-266 31q12 39 45 101.5t119 121.5q74 51 166 69.5t163 18.5q127 0 205 -31.5t121 -76.5t57.5 -95.5 t14.5 -87.5q0 -18 -1 -33.5t-4 -38t-9.5 -58t-14.5 -93.5l-45 -260q-10 -57 -15 -99t-5 -93q0 -20 1 -35t5 -33h-285q-2 37 -2 56.5t2 35.5q0 4 1 16.5t3 27t3 26.5t1 14q-10 -27 -41.5 -74t-105.5 -86q-43 -23 -87 -33t-91 -10q-68 0 -124.5 21.5t-96 58.5t-61 87.5 t-21.5 109.5zM330 285q0 -47 27.5 -85t86.5 -38q57 0 99.5 28.5t71 75.5t47 105.5t28.5 120.5q-21 0 -49.5 -2.5t-60 -7.5t-63.5 -12t-58 -17q-43 -16 -68.5 -40t-39 -47.5t-17.5 -45t-4 -35.5z" />
<glyph unicode="b" horiz-adv-x="1107" d="M39 0q4 18 9 38.5t9 47.5q8 45 17 102l17 117l19 117q9 57 17 102l139 842h295l-82 -487l37 53q20 29 51 52.5t72 39.5t98 16q61 0 117.5 -23.5t99.5 -74.5t69 -131t26 -193q0 -104 -28 -217.5t-85 -207t-146.5 -153.5t-209.5 -60q-74 0 -126.5 20t-87 49t-54 59.5 t-31.5 53.5q-27 -41 -44.5 -75t-35.5 -87h-162zM401 348q0 -53 13.5 -85t34 -50t44 -24.5t44.5 -6.5q78 0 123 73t69 196q2 6 6 29.5t8.5 54t7.5 65.5t3 64q0 84 -36 128t-95 44q-35 0 -59.5 -13.5t-43 -31t-30 -35t-15.5 -27.5q-20 -41 -33.5 -98.5t-22.5 -114.5 t-13.5 -103.5t-4.5 -64.5z" />
<glyph unicode="c" horiz-adv-x="1038" d="M63 442q0 88 28 191.5t92.5 192.5t167 149.5t253.5 60.5q125 0 205 -43t126 -104.5t62 -129.5q15 -61 15 -107v-11l-264 -16v12q0 49 -15 82q-16 37 -38.5 57.5t-49.5 28.5t-47 8q-53 0 -90 -29.5t-61.5 -74.5t-37 -98.5t-18.5 -98.5t-7 -78t-1 -35q0 -12 2 -42.5 t16.5 -62.5t46 -57.5t89.5 -25.5q49 0 82.5 20.5t55 49t34 59.5t18.5 51l248 -35q-37 -106 -87 -178t-111.5 -116t-131.5 -63t-143 -19q-117 0 -201 40.5t-136 106.5t-77 148.5t-25 166.5z" />
<glyph unicode="d" horiz-adv-x="1105" d="M59 399q0 51 9.5 120t31 139.5t55 139t84 122t116 86t149.5 32.5q80 0 147.5 -42t93.5 -146l86 516h295l-229 -1366h-276l26 160q-12 -20 -33.5 -51t-53.5 -60t-76 -49t-101 -20q-94 0 -156.5 38.5t-99.5 100t-52.5 136t-15.5 144.5zM362 360q0 -55 14.5 -88.5t34 -52 t41 -25t36 -6.5t39 5.5t51 26t52 60t42.5 111.5q6 23 12 60.5t11 77.5l10 74q4 34 4 50q0 88 -43 133t-97 45q-55 0 -93 -40.5t-52 -79.5q-12 -35 -23.5 -79t-19.5 -91t-13.5 -94.5t-5.5 -86.5z" />
<glyph unicode="e" horiz-adv-x="1079" d="M55 442q0 96 33 202t98.5 193t167 144t240.5 57q98 0 178 -33.5t136.5 -94t86 -145.5t29.5 -187q0 -23 -2 -47.5t-8 -73.5h-656q-4 -33 -5 -47.5t-1 -28.5q0 -61 18.5 -100t44 -60.5t55.5 -29t54 -7.5q53 0 89 20.5t59.5 47.5t36 53.5t16.5 40.5l250 -43 q-59 -162 -181 -246t-288 -84q-115 0 -200 40t-140 106.5t-83 150.5t-28 172zM379 625h366q2 12 3.5 26.5t1.5 32.5q0 49 -14.5 81t-38 51.5t-50 27.5t-51.5 8q-61 0 -100 -25.5t-62.5 -61.5t-36 -74.5t-18.5 -65.5z" />
<glyph unicode="f" horiz-adv-x="651" d="M55 0l133 786h-120l28 232h131q12 94 38 170t76 129t129 81.5t196 28.5q41 0 67.5 -3t54.5 -7l-16 -235q-18 4 -39.5 6t-50.5 2q-53 0 -84 -14.5t-47 -38t-22.5 -54t-10.5 -65.5h199l-39 -232h-197l-131 -786h-295z" />
<glyph unicode="g" horiz-adv-x="1050" d="M-78 -137q0 49 20.5 83t50.5 58.5t62 38.5l58 25q-29 23 -58.5 58.5t-29.5 106.5q0 53 17 91t46 66t69 50l83 45l-34 25.5t-38 40t-30.5 60.5t-12.5 87q0 96 43 162t109.5 106t144.5 56t145 16q41 0 88 -5t86 -15q10 74 36 120t59.5 71.5t72.5 35.5t76 10q18 0 32.5 -1 t47.5 -3l-12 -198q-29 4 -42.5 5t-23.5 1q-12 0 -31.5 -2t-39 -10.5t-36 -25.5t-22.5 -48l46 -33q26 -18 47.5 -46t35.5 -65.5t14 -93.5q0 -88 -38.5 -150.5t-101 -102.5t-141.5 -59.5t-159 -19.5q-45 0 -85 5.5t-87 13.5q-20 -10 -51 -29.5t-31 -60.5q0 -51 44 -60.5 t120 -13.5q92 -4 149.5 -6t96.5 -6t63.5 -11.5t50.5 -19.5q72 -33 113 -94.5t41 -136.5q0 -53 -22.5 -109.5t-63.5 -99.5q-53 -57 -170 -95t-326 -38q-53 0 -134 3t-158.5 24.5t-133 65.5t-55.5 128zM172 -90q0 -35 31.5 -54.5t77 -30.5t92.5 -14.5t78 -3.5q141 0 200.5 28 t59.5 81q0 27 -15.5 41t-40 22.5t-55.5 10.5t-61 2q-14 0 -51 2t-79 3t-80 3t-53 2q-16 0 -33.5 -7t-34 -19.5t-26.5 -30t-10 -35.5zM401 711q0 -16 2 -41t16.5 -49.5t44.5 -42t85 -17.5q61 0 97 21.5t54.5 51.5t23.5 59.5t5 45.5q0 63 -37 98t-114 35q-55 0 -90 -19 t-54.5 -46t-26 -54.5t-6.5 -41.5z" />
<glyph unicode="h" horiz-adv-x="1120" d="M39 0l227 1366h295l-84 -498l34 45q22 29 55.5 55.5t81.5 46t114 19.5q55 0 104 -17.5t86 -51t58.5 -81.5t21.5 -108q0 -23 -1 -39t-4 -38.5t-9 -60.5l-17 -101l-88 -537h-295l105 616q2 10 5 37t3 52q0 41 -27.5 71.5t-80.5 30.5q-47 0 -83 -21.5t-59 -54.5 q-12 -20 -21 -41.5t-16.5 -49.5t-14.5 -65.5t-15 -89.5l-82 -485h-293z" />
<glyph unicode="i" horiz-adv-x="550" d="M39 0l170 1018h305l-170 -1018h-305zM221 1096l49 288h305l-49 -288h-305z" />
<glyph unicode="j" horiz-adv-x="548" d="M-203 -358l35 233q16 -2 28.5 -3t30.5 -1q66 0 92.5 22.5t39.5 49.5q4 10 10 42l13 69q7 38 12 73t10 51l141 840h303l-150 -889q-18 -115 -38.5 -208t-59.5 -158.5t-106.5 -100.5t-180.5 -35q-47 0 -92 5.5t-88 9.5zM221 1094l49 290h303l-49 -290h-303z" />
<glyph unicode="k" horiz-adv-x="1107" d="M39 0l227 1366h289l-133 -797l438 449h314l-355 -344l217 -674h-305l-143 467l-211 -201l-45 -266h-293z" />
<glyph unicode="l" horiz-adv-x="538" d="M39 0l227 1366h293l-227 -1366h-293z" />
<glyph unicode="m" horiz-adv-x="1667" d="M39 0l170 1018h266l-29 -174q20 33 46 68.5t60 63.5t79 46t108.5 18t107.5 -20.5t72.5 -50t44 -62.5t25.5 -57q20 31 46 63.5t60.5 59t81 44t111.5 17.5q70 0 124 -22.5t91 -61.5t55.5 -91t18.5 -111q0 -18 -1 -34t-3 -34t-7 -46t-12 -71l-94 -563h-289l97 567 q10 61 12 81t2 36q0 66 -31.5 92.5t-76.5 26.5q-57 0 -93.5 -30t-58 -75t-31.5 -98l-18 -98l-84 -502h-285l101 606q4 16 8 46t4 46q0 53 -27.5 82t-75.5 29q-31 0 -59.5 -12.5t-56.5 -42.5q-18 -25 -30.5 -49.5t-22 -57.5t-17.5 -80l-20 -116l-76 -451h-293z" />
<glyph unicode="n" horiz-adv-x="1116" d="M37 0l170 1018h276l-32 -193q66 121 146.5 166t158.5 45q66 0 116 -22.5t84.5 -60.5t53 -88t18.5 -105q0 -16 -1 -31.5t-4 -35t-7 -48.5t-12 -74l-95 -571h-295l101 594q2 10 4 26l4 31l4 32q2 15 2 24q0 39 -15.5 61.5t-33.5 31.5t-34.5 11t-20.5 2q-53 0 -94.5 -30.5 t-61.5 -73.5q-12 -23 -19.5 -42.5t-12.5 -41t-10 -50t-11 -71.5l-84 -504h-295z" />
<glyph unicode="o" horiz-adv-x="1093" d="M63 444q0 33 4.5 68t9.5 64.5t10 51.5l7 29q37 117 95.5 192t126 118t138 59t132.5 16q98 0 180 -33.5t140.5 -97t91 -151.5t32.5 -195q0 -119 -38 -225.5t-106.5 -186t-164.5 -126.5t-211 -47q-96 0 -178 32.5t-141.5 93t-93.5 146.5t-34 192zM365 371q0 -31 4 -66 t19 -64.5t46 -48t82 -18.5q45 0 84 23.5t68 93.5q18 43 30.5 93t19.5 100.5t11 94.5t4 72q0 16 -2 49t-16.5 65t-44 56.5t-84.5 24.5q-86 0 -130 -64.5t-67 -177.5q-16 -76 -20 -132t-4 -101z" />
<glyph unicode="p" horiz-adv-x="1105" d="M-20 -356l229 1374h266l-29 -184q23 39 49.5 74.5t60.5 62t76 43t95 16.5q78 0 137.5 -31.5t99.5 -88t60 -133.5t20 -165q0 -111 -27.5 -223.5t-81.5 -203.5t-134 -148t-185 -57q-84 0 -157.5 43t-102.5 127l-84 -506h-292zM395 362q0 -57 15.5 -93t38 -55t46 -26.5 t40.5 -7.5q51 0 84.5 33t55 81t33 101.5t19.5 96.5q6 33 11 76.5t5 93.5q0 27 -6 55t-21.5 53t-40 40t-61.5 15q-53 0 -97 -36.5t-68 -108.5q-8 -23 -17.5 -66t-17.5 -90t-13.5 -92t-5.5 -70z" />
<glyph unicode="q" horiz-adv-x="1107" d="M57 381q0 51 9.5 119.5t32 141.5t58.5 142.5t90 126t126.5 90t169.5 33.5q104 0 170.5 -51t101.5 -131q43 47 67.5 98t30.5 68h164q-6 -25 -11 -48.5t-12 -63.5l-19 -105l-29 -176l-164 -981h-295l82 487l-28 -43q-17 -27 -48 -51.5t-74 -43t-100 -18.5q-82 0 -142.5 34 t-100.5 90.5t-59.5 130t-19.5 151.5zM352 350q0 -33 5 -66.5t19.5 -60t39 -43t63.5 -16.5q51 0 88 27.5t62.5 80t43 128t29.5 173.5q4 27 6.5 60t2.5 51q0 57 -17.5 90t-40 48.5t-45 19.5t-33.5 4q-29 0 -52 -10.5t-39.5 -25.5t-28 -31.5t-17.5 -28.5q-18 -39 -33.5 -90.5 t-26.5 -106.5t-18.5 -108.5t-7.5 -94.5z" />
<glyph unicode="r" horiz-adv-x="720" d="M39 0l170 1018h283l-39 -236q33 76 65.5 125t69.5 77t78 37t92 9l-31 -293h-9q-92 0 -150 -39q-60 -41 -97 -112.5t-55.5 -166.5t-34.5 -200l-37 -219h-305z" />
<glyph unicode="s" horiz-adv-x="952" d="M-33 285l252 28q4 -29 15.5 -57.5t56.5 -52.5q31 -16 71.5 -24.5t75.5 -8.5q61 0 94 15.5t48.5 35t18.5 36.5t3 19q0 53 -45 69.5t-123 31.5q-47 8 -109.5 22.5t-117.5 47t-94 90t-39 149.5q0 63 22.5 126t70.5 113t125 81.5t187 31.5q78 0 167 -22.5t161 -89.5 q51 -47 68.5 -95.5t25.5 -80.5l-227 -45q-8 39 -25.5 67.5t-52.5 44.5q-33 16 -64.5 22.5t-56.5 6.5q-61 0 -96 -32t-35 -66q0 -27 11.5 -42.5t37 -26.5t66.5 -19l102 -17q55 -10 110.5 -28.5t98.5 -54.5t70.5 -89t27.5 -131q0 -61 -24.5 -125.5t-77.5 -117t-137 -86.5 t-203 -34q-121 0 -218 35t-151 90q-53 53 -68.5 103.5t-21.5 79.5z" />
<glyph unicode="t" horiz-adv-x="735" d="M57 786l39 232h170l70 280l256 7l-47 -287h233l-39 -232h-241l-68 -409q-4 -18 -7 -45t-3 -43q0 -55 41 -68.5t90 -13.5q10 0 42 1t64 7l-36 -223l-84 -10q-49 -6 -119 -7q-45 0 -97.5 7.5t-98.5 33t-76.5 73.5t-30.5 132q0 51 10 109l22 121l68 335h-158z" />
<glyph unicode="u" horiz-adv-x="1097" d="M86 236q0 16 1 30.5t3 32.5t6 43t10 66l103 610h293l-107 -629q0 -4 -2 -15.5t-3 -24.5t-3 -27.5t-2 -22.5q0 -45 24.5 -66.5t59.5 -21.5t73 19.5t64 54.5q16 25 27.5 47t20 49t15.5 61.5t15 85.5l82 490h295l-170 -1018h-270l30 182l-35 -53q-23 -35 -59.5 -68.5 t-89.5 -59.5t-125 -26q-43 0 -88 12.5t-83 43t-61.5 81t-23.5 124.5z" />
<glyph unicode="v" horiz-adv-x="931" d="M66 1018h311l106 -633l293 633h234l-498 -1018h-246z" />
<glyph unicode="w" horiz-adv-x="1474" d="M82 1018h305l78 -635l242 635h272l59 -635l277 635h227l-461 -1018h-262l-74 657l-256 -657h-256z" />
<glyph unicode="x" horiz-adv-x="970" d="M-92 0l424 545l-223 473h325l127 -297l211 297h264l-385 -486l242 -532h-318l-147 358l-260 -358h-260z" />
<glyph unicode="y" horiz-adv-x="921" d="M-43 -350l16 225q53 -6 76 -8t47 -2q49 0 83 10t55.5 28.5t37 45t27.5 61.5l-233 1008h307l121 -619l276 619h229l-454 -963q-51 -106 -93 -184t-92.5 -128t-119 -74.5t-174.5 -24.5q-23 0 -52.5 1t-56.5 5z" />
<glyph unicode="z" horiz-adv-x="884" d="M-43 0l33 197l532 606h-416l35 215h774l-32 -199l-533 -604h445l-35 -215h-803z" />
<glyph unicode="{" horiz-adv-x="641" d="M47 459l19 110q14 2 34.5 8.5t40 21.5t37 42t25.5 74l61 377q14 86 40 139t61.5 82.5t81 41t98.5 11.5q8 0 27.5 -1t41 -1t40 -1t26.5 -1l-21 -119q-43 0 -68.5 -2t-38.5 -15.5t-20.5 -41t-15.5 -74.5l-61 -365q-10 -61 -26.5 -100t-38 -65.5t-46.5 -44t-51 -31.5 q35 -25 61.5 -56.5t26.5 -103.5q0 -37 -6 -80l-62 -364q-10 -57 -10 -82q0 -41 26 -47q19 -5 57 -5q13 0 28 1l-21 -119q-8 0 -27.5 -1t-41 -1t-41 -1t-25.5 -1q-23 0 -55.5 3t-65.5 18.5t-55.5 49t-22.5 95.5q0 33 2 56t7 52l63 377q4 23 5 39t1 24q0 10 -2 24.5t-10 30 t-26.5 28t-51.5 18.5z" />
<glyph unicode="|" horiz-adv-x="1001" d="M401 -512v2048h283v-2048h-283z" />
<glyph unicode="}" horiz-adv-x="641" d="M-41 -352l21 119q43 0 67.5 2t38.5 15t21.5 39.5t15.5 76.5l61 364q10 61 26.5 100t38 65t46 43t51.5 34q-37 25 -62.5 57.5t-25.5 104.5q0 18 1 36.5t5 40.5l62 365q4 25 7 47.5t3 34.5q0 41 -26 47q-19 5 -56 5q-12 0 -27 -1l19 119q8 0 27.5 1t41 1t41 1t25.5 1 q20 0 54 -3t67 -18.5t55.5 -49t22.5 -95.5q0 -33 -2.5 -56.5t-6.5 -51.5l-63 -377q-6 -31 -6 -64q0 -10 2 -24.5t10 -28.5t26.5 -27.5t53.5 -19.5l-19 -111l-36 -9q-20 -5 -40 -20.5t-36.5 -43t-24.5 -72.5l-63 -377q-14 -84 -39 -137t-60.5 -84t-80.5 -42t-101 -11 q-8 0 -27.5 1t-41 1t-40 1t-26.5 1z" />
<glyph unicode="~" d="M133 588q47 147 123 215.5t186 68.5q8 0 22.5 -1t39 -6t60.5 -16t91 -32l66 -23q27 -9 45 -14.5t33.5 -7.5t31.5 -2q63 0 94 32t54 72l149 -88q-18 -41 -43.5 -88t-63.5 -88t-91 -68.5t-127 -27.5q-12 0 -24.5 1t-34 6t-57.5 16.5t-93 33.5l-63 22q-26 9 -44 14t-31.5 7 t-27.5 2q-63 0 -93 -36.5t-56 -87.5z" />
<glyph unicode="&#xa1;" horiz-adv-x="589" d="M0 -350l242 954h157l-51 -954h-348zM176 713l51 303h303l-51 -303h-303z" />
<glyph unicode="&#xa2;" d="M215 647q0 72 22.5 163t73.5 174t136 141.5t212 62.5l33 198h139l-34 -212q25 -6 67.5 -20.5t87.5 -51.5t82 -101.5t51 -171.5l-251 -28q2 18 1 34q0 49 -14 78q-18 39 -45.5 57.5t-53.5 21.5t-32 3q-45 0 -90 -28.5t-76 -124.5q-14 -41 -25.5 -108.5t-11.5 -125.5 q0 -63 17.5 -101t42 -57.5t50.5 -25.5t42 -6q47 0 80 21.5t54.5 50t33.5 57t16 43.5l226 -43q-16 -45 -46 -109.5t-104 -130.5q-39 -35 -75 -53t-68.5 -27.5t-60 -11.5t-48.5 -2l-45 -266h-137l47 278q-41 10 -94 33t-106.5 88.5t-75 144t-21.5 156.5z" />
<glyph unicode="&#xa3;" d="M-66 0l33 260h109q53 0 102 9.5t98 62.5q45 51 53.5 121.5t10.5 171.5h-195l33 206h158q-1 14 -1 30q0 47 5 110q6 84 49 182q47 106 149.5 174t262.5 68q117 0 188.5 -31t114.5 -74t62.5 -90t29.5 -78l-274 -100q-2 12 -6.5 34.5t-16.5 44t-35.5 38t-62.5 16.5 q-59 0 -91 -30.5t-46.5 -72.5t-16.5 -83t-2 -60l2 -78h225l-34 -206h-197q-2 -41 -9 -87t-24.5 -94.5t-49.5 -94.5t-83 -89h109q57 0 103 5t83 23.5t65.5 56.5t51.5 104l270 -80q-12 -33 -29.5 -72t-45 -80t-67.5 -81t-97 -73q-35 -20 -68 -32.5t-79 -19.5t-111.5 -9 t-165.5 -2h-560z" />
<glyph unicode="&#xa4;" d="M74 1180l108 108l176 -176q35 23 92.5 51.5t153.5 28.5q94 0 153.5 -29.5t88.5 -48.5l174 172l108 -106l-174 -174q23 -33 51.5 -92.5t28.5 -151.5t-27.5 -148.5t-52.5 -91.5l176 -174l-106 -108l-174 174q-80 -55 -145.5 -68.5t-100.5 -13.5q-92 0 -150.5 28.5 t-97.5 51.5l-174 -172l-106 106l174 174l-20 32q-13 22 -26.5 52.5t-23.5 70.5t-10 89q0 92 29.5 151.5t50.5 88.5zM362 762q0 -49 18.5 -93t51.5 -77t77 -52.5t93 -19.5t93 18.5t77 51.5t52.5 77t19.5 95q0 49 -18.5 93t-51.5 77t-77 52.5t-95 19.5q-49 0 -93 -19.5 t-77 -52.5t-51.5 -77t-18.5 -93z" />
<glyph unicode="&#xa5;" d="M70 383l28 164h373l4 26l-51 138h-299l27 163h206l-190 492h332l180 -551l328 551h290l-321 -492h240l-27 -163h-320l-88 -138l-4 -26h383l-26 -164h-385l-64 -383h-305l63 383h-374z" />
<glyph unicode="&#xa6;" horiz-adv-x="1024" d="M401 -358v716h283v-716h-283zM401 666v716h283v-716h-283z" />
<glyph unicode="&#xa7;" horiz-adv-x="1193" d="M33 -61l258 41q8 -18 21.5 -43t40 -48.5t69.5 -39t108 -15.5q113 0 164 46t51 100q0 20 -6 39.5t-27.5 41t-66.5 46t-121 57.5l-137 57q-53 23 -88 41.5t-57.5 36.5t-40.5 43q-23 31 -33 70t-10 75q0 63 21.5 116.5t51 97.5t61.5 76t54 52q-12 8 -26.5 22.5t-26.5 35 t-20.5 49.5t-8.5 70q0 86 39 155.5t103.5 118.5t146.5 74.5t168 25.5q94 0 159.5 -25.5t111.5 -62.5t75 -76.5t47 -70.5l-217 -66q-8 14 -22.5 35t-36 39t-54 31.5t-77.5 13.5q-76 0 -121 -35t-45 -86q0 -43 31.5 -66.5t109.5 -58.5l179 -76.5t122 -70.5t69.5 -83t22.5 -114 q0 -57 -18.5 -106t-45 -90t-56 -72t-52.5 -51q14 -10 32.5 -25.5t36 -41t30 -64.5t12.5 -97q0 -111 -44 -192.5t-117 -133.5t-163 -78t-182 -26q-96 0 -175 23.5t-139.5 65.5t-101.5 97.5t-59 121.5zM430 580q0 -35 24.5 -58.5t61.5 -44.5q10 -6 38 -17t58.5 -25.5t58 -26 t40.5 -17.5q43 37 66.5 64.5t23.5 72.5q0 29 -20.5 57.5t-100.5 63.5l-63 29l-38 17l-26 13q-10 5 -25 11q-41 -35 -69.5 -64.5t-28.5 -74.5z" />
<glyph unicode="&#xa8;" horiz-adv-x="1024" d="M356 1307q0 41 31 78.5t88 37.5q18 0 40 -7t40 -20.5t29.5 -36t11.5 -52.5q0 -57 -38 -86t-83 -29q-57 0 -88 36t-31 79zM690 1307q0 41 31 78.5t88 37.5q18 0 39.5 -7t40 -20.5t30 -36t11.5 -52.5q0 -57 -38 -86t-83 -29q-57 0 -88 36t-31 79z" />
<glyph unicode="&#xa9;" horiz-adv-x="1570" d="M111 682q0 141 53 269t148.5 225.5t223.5 153.5t279 56q154 0 283 -58t222 -156.5t145.5 -225.5t52.5 -264t-52.5 -264t-145.5 -224.5t-222 -155.5t-283 -58q-152 0 -279.5 56t-223 152.5t-148.5 224.5t-53 269zM209 682q0 -123 46 -232.5t128 -191.5t192.5 -130 t239.5 -48q131 0 241.5 50t190.5 133t125 191.5t45 227.5t-45 228.5t-125 193.5t-190.5 134t-241.5 50q-129 0 -240.5 -49t-192.5 -132t-127 -192.5t-46 -232.5zM426 621q0 78 24.5 163.5t76 157.5t130 119t187.5 47q43 0 87 -9t86 -29.5t75.5 -53.5t54.5 -82q23 -47 27 -87 t6 -71l-215 -10v11q0 63 -22 111q-24 52 -99 52q-53 0 -77 -22.5t-32 -34.5q-20 -27 -48 -106t-28 -183q0 -14 2.5 -43t14.5 -56.5t39.5 -48t77.5 -20.5q39 0 64.5 12.5t43 34t29.5 49t22 56.5l195 -33q-29 -84 -69 -139.5t-89 -88t-103.5 -46t-109.5 -13.5 q-102 0 -169.5 36t-107.5 90t-56.5 118t-16.5 119z" />
<glyph unicode="&#xaa;" horiz-adv-x="727" d="M113 911q0 78 48 123t116.5 67.5t141.5 30t122 11.5q4 8 6 19.5t2 27.5q0 33 -20.5 49t-53.5 16q-59 0 -80.5 -28.5t-36.5 -63.5l-186 21q23 68 65 107.5t89 59t92 24.5t74 5q94 0 146 -25.5t76.5 -57t30 -60.5t5.5 -37q0 -12 -1 -21.5t-2.5 -22.5t-4.5 -33.5t-9 -53.5 l-26 -154l-8.5 -52t-4.5 -56q0 -16 1 -25.5t3 -25.5h-196q-2 35 -2 45t2 20q-41 -47 -94.5 -63.5t-94.5 -16.5q-92 0 -146 49t-54 121zM326 932q0 -31 17 -49.5t44 -18.5q8 0 27.5 4t40 22.5t40 54.5t29.5 99l-58 -5q-34 -3 -64.5 -14t-53 -33.5t-22.5 -59.5z" />
<glyph unicode="&#xab;" horiz-adv-x="706" d="M68 504l213 293h102l-150 -299l70 -285h-94zM340 504l213 293h102l-147 -299l67 -285h-96z" />
<glyph unicode="&#xac;" d="M125 758v219h1010v-596h-220v377h-790z" />
<glyph unicode="&#xad;" horiz-adv-x="473" d="M-18 393l36 223h474l-37 -223h-473z" />
<glyph unicode="&#xae;" horiz-adv-x="1021" d="M147 942q0 92 35 172t94.5 139.5t138.5 93t169 33.5q88 0 167.5 -33.5t139 -93t94.5 -139.5t35 -172q0 -90 -35 -169t-94.5 -138.5t-138 -93t-168.5 -33.5t-169 33.5t-138.5 93t-94.5 138.5t-35 169zM223 942q0 -74 29 -139.5t78 -114.5t114.5 -76.5t139 -27.5t139 28.5 t115 76.5t78 113.5t28.5 139.5q0 76 -28.5 142.5t-78 115.5t-115 77t-139 28t-139 -28t-114.5 -77t-78 -115.5t-29 -142.5zM356 719l80 450h207q10 0 38 -2t56.5 -14t50 -40t21.5 -77q0 -6 -1 -22.5t-10.5 -37t-28.5 -41t-56 -32.5l51 -184h-148l-41 166h-45l-30 -166h-144z M547 987h45q6 0 18.5 1t23.5 5t19.5 12.5t8.5 24.5q0 14 -7.5 21.5t-16.5 10.5t-18.5 4t-13.5 1h-45z" />
<glyph unicode="&#xaf;" horiz-adv-x="1024" d="M315 1231l23 143h629l-25 -143h-627z" />
<glyph unicode="&#xb0;" d="M416 1106q0 59 21.5 111.5t60.5 91.5t90 61.5t110.5 22.5t111.5 -22.5t91 -62.5t61.5 -93.5t22.5 -112.5q0 -61 -23.5 -114.5t-62.5 -91.5t-90 -59.5t-107 -21.5q-59 0 -111 22.5t-91 62.5t-61.5 93.5t-22.5 112.5zM563 1106q0 -59 41 -100t98.5 -41t96.5 41t39 98 q0 59 -39 100t-98.5 41t-98.5 -41t-39 -98z" />
<glyph unicode="&#xb1;" d="M84 -102v219h1012v-219h-1012zM84 580v219h397v411h217v-411h398v-219h-398v-410h-217v410h-397z" />
<glyph unicode="&#xb2;" horiz-adv-x="792" d="M80 547l24 186l196 113q103 59 196 125q74 51 91 87t17 60q0 51 -36 75t-76 24q-53 0 -92.5 -36t-55.5 -114l-194 41l15 47q9 29 27.5 59.5t47 62.5t73.5 58q57 35 107.5 42t79.5 7q70 0 129 -19t103 -55t68.5 -84t24.5 -106q0 -68 -28.5 -118t-87 -95t-148.5 -91 t-215 -103h420l-25 -166h-661z" />
<glyph unicode="&#xb3;" horiz-adv-x="792" d="M74 782l184 33q4 -12 12.5 -33.5t26.5 -43t49 -37t78 -15.5q70 0 101.5 31t31.5 74q0 39 -18.5 60t-45 30.5t-54 11.5t-48.5 2h-72l21 149h100q18 0 44 1.5t49.5 10.5t40 27.5t16.5 53.5q0 47 -37 69.5t-82 22.5q-35 0 -59.5 -10.5t-40 -25.5t-25.5 -32.5t-16 -30.5 l-185 48q8 20 28 55t58.5 68.5t99 58t150.5 24.5q63 0 122 -14t104 -43t71.5 -72t26.5 -100q0 -33 -12.5 -67.5t-40.5 -65.5q-25 -29 -49.5 -39t-53.5 -18q12 -6 34 -19.5t42 -35t35.5 -53.5t15.5 -77t-20.5 -90t-62.5 -82t-105.5 -59.5t-151.5 -22.5q-43 0 -96 9.5 t-105.5 36t-96.5 76.5t-64 134z" />
<glyph unicode="&#xb4;" horiz-adv-x="1024" d="M428 1272l410 241l75 -161l-436 -191z" />
<glyph unicode="&#xb5;" horiz-adv-x="1026" d="M-94 -356l231 1374h279l-94 -551q-6 -35 -9.5 -63.5t-3.5 -45.5q0 -66 44 -111.5t112 -45.5q43 0 80 18.5t61 44.5q45 47 60.5 105.5t23.5 103.5l94 545h279l-174 -1018h-275l19 113l-27 -37q-16 -23 -40.5 -44.5t-60.5 -36.5t-81 -15q-41 0 -68.5 12t-47 30.5t-31 40 t-17.5 39.5l-76 -458h-278z" />
<glyph unicode="&#xb6;" d="M133 952q0 35 7 85t28.5 102.5t62.5 100.5t111 83q31 14 57.5 23.5t67.5 13.5t104.5 5t167.5 1h555l-20 -127h-152l-264 -1581h-119l265 1581h-123l-265 -1581h-127l170 1008h-45h-137q-51 0 -83 2t-51 6t-42 12q-31 10 -61.5 29.5t-54 51.5t-38 78t-14.5 107zM387 965 q0 -66 20.5 -102t55.5 -52t83 -19.5t103 -3.5h31l76 453h-91q-38 0 -68 -3t-52.5 -9t-42.5 -19q-43 -23 -66.5 -60.5t-34 -75.5t-12.5 -69.5t-2 -39.5z" />
<glyph unicode="&#xb7;" horiz-adv-x="542" d="M90 350l51 309h312l-52 -309h-311z" />
<glyph unicode="&#xb8;" horiz-adv-x="1024" d="M170 -354l47 86l56.5 -28.5t72.5 -16.5q47 0 65.5 25.5t18.5 47.5q0 20 -10 32.5t-25.5 20t-32 9.5t-28.5 2q-14 0 -30.5 -2t-22.5 -2l92 180h100l-53 -100q18 2 35 2q55 0 93 -26q50 -34 50 -103q0 -86 -67.5 -135.5t-161.5 -49.5q-74 0 -123 22t-76 36z" />
<glyph unicode="&#xb9;" horiz-adv-x="792" d="M141 547l27 168h203l73 434l-45 -24.5t-45.5 -15.5t-59.5 -7q-17 -1 -39 -1t-48 1l26 162q9 0 19 -1q64 0 110 13q53 14 87 33.5t52.5 41t28.5 35.5h160l-112 -671h204l-26 -168h-615z" />
<glyph unicode="&#xba;" horiz-adv-x="727" d="M147 1020q0 64 18.5 127t60.5 115.5t107.5 85t160.5 32.5q51 0 100 -18.5t88 -54t62.5 -90t23.5 -126t-24.5 -136t-68.5 -111.5t-105.5 -75t-133.5 -28q-66 0 -119 21.5t-91 59.5t-58.5 88.5t-20.5 109.5zM356 985q0 -43 14.5 -79t69.5 -36q29 0 45.5 11.5t28.5 33.5 q12 20 21.5 50t14.5 63t8 62.5t3 50.5q0 8 -1 26.5t-9 37t-24.5 32.5t-47.5 14q-41 0 -66.5 -29.5t-41.5 -105.5q-4 -12 -9.5 -50t-5.5 -81z" />
<glyph unicode="&#xbb;" horiz-adv-x="706" d="M51 213l148 299l-68 285h96l138 -291l-213 -293h-101zM322 213l149 299l-70 285h95l143 -291l-215 -293h-102z" />
<glyph unicode="&#xbc;" horiz-adv-x="1882" d="M141 547l27 168h203l73 434l-45 -24.5t-45.5 -15.5t-59.5 -7q-17 -1 -39 -1t-48 1l26 162q9 0 19 -1q64 0 110 13q53 14 87 33.5t52.5 41t28.5 35.5h160l-112 -671h204l-26 -168h-615zM383 0l987 1370h191l-990 -1370h-188zM1087 186l25 156l416 489h241l-79 -489h129 l-27 -156h-129l-31 -186h-200l30 186h-375zM1257 324h238l59 346z" />
<glyph unicode="&#xbd;" horiz-adv-x="1882" d="M141 547l27 168h203l71 434l-45 -24.5t-44.5 -15.5t-58.5 -7q-17 -1 -39 -1t-48 1l26 162q9 0 19 -1q64 0 110 13q53 14 87 33.5t52.5 41t28.5 35.5h158l-110 -671h204l-26 -168h-615zM383 0l987 1370h191l-992 -1370h-186zM1079 0l25 186l90 51l101 58l104 63 q51 33 96 66q37 27 59.5 48.5t32.5 39.5t13.5 32.5t3.5 26.5q0 49 -36 74t-77 25q-43 0 -70.5 -19.5t-44 -45t-23.5 -50.5l-10 -35l-194 43q27 92 73 147.5t97 83t100 36t80 8.5q70 0 129.5 -19.5t103.5 -55.5t68.5 -84t24.5 -106q0 -68 -28 -117.5t-86 -95t-149.5 -91.5 t-215.5 -103h419l-24 -166h-662z" />
<glyph unicode="&#xbe;" horiz-adv-x="1882" d="M74 782l184 33q4 -12 12.5 -33.5t26.5 -43t49 -37t78 -15.5q70 0 101.5 31t31.5 74q0 39 -18.5 60t-45 30.5t-54 11.5t-48.5 2h-72l21 149h100q18 0 44 1.5t49.5 10.5t40 27.5t16.5 53.5q0 47 -37 69.5t-82 22.5q-35 0 -59.5 -10.5t-40 -25.5t-25.5 -32.5t-16 -30.5 l-185 48q8 20 28 55t58.5 68.5t99 58t150.5 24.5q63 0 122 -14t104 -43t71.5 -72t26.5 -100q0 -33 -12.5 -67.5t-40.5 -65.5q-25 -29 -49.5 -39t-53.5 -18q12 -6 34 -19.5t42 -35t35.5 -53.5t15.5 -77t-20.5 -90t-62.5 -82t-105.5 -59.5t-151.5 -22.5q-43 0 -96 9.5 t-105.5 36t-96.5 76.5t-64 134zM383 0l985 1370h191l-990 -1370h-186zM1085 186l25 156l416 489h243l-81 -489h129l-27 -156h-129l-31 -186h-200l32 186h-377zM1255 324h240l57 346z" />
<glyph unicode="&#xbf;" horiz-adv-x="1030" d="M-27 -14q0 63 17.5 115.5t45 93.5t63.5 72.5t71 54.5l129 82q47 32 71.5 58.5t33 57.5t14.5 82h254q-8 -68 -15.5 -119t-24 -92t-47 -75.5t-81.5 -73.5l-106 -80q-42 -33 -66.5 -60.5t-34.5 -54.5t-10 -61q0 -76 48 -114t107 -38q47 0 83 20.5t60.5 52.5t41 71.5 t26.5 76.5l260 -67q-25 -88 -69.5 -162t-107 -127t-142.5 -83t-172 -30q-90 0 -172 28t-143.5 79t-97.5 125t-36 168zM397 711l52 305h303l-52 -305h-303z" />
<glyph unicode="&#xc0;" horiz-adv-x="1259" d="M-72 0l650 1366h374l230 -1366h-326l-43 301h-457l-131 -301h-297zM459 539h321l-82 546zM475 1651l88 157l363 -215l-56 -112z" />
<glyph unicode="&#xc1;" horiz-adv-x="1259" d="M-72 0l650 1366h374l230 -1366h-326l-43 301h-457l-131 -301h-297zM459 539h321l-82 546zM571 1593l416 215l76 -163l-445 -164z" />
<glyph unicode="&#xc2;" horiz-adv-x="1259" d="M-72 0l650 1366h374l230 -1366h-326l-43 301h-457l-131 -301h-297zM401 1509l414 287l315 -287l-208 -20l-134 108l-178 -108zM459 539h321l-82 546z" />
<glyph unicode="&#xc3;" horiz-adv-x="1259" d="M-72 0l650 1366h374l230 -1366h-326l-43 301h-457l-131 -301h-297zM391 1647q125 104 240 104q45 0 77.5 -10t77.5 -33q16 -8 43 -19.5t49.5 -11.5t65.5 14.5t98 67.5l68 -119l-38 -33q-24 -22 -56.5 -41.5t-73.5 -33.5t-88 -14q-43 0 -70.5 9t-44.5 17l-58 26l-35 14 t-21.5 6t-18.5 1q-45 0 -85 -22.5t-62 -38.5zM459 539h321l-82 546z" />
<glyph unicode="&#xc4;" horiz-adv-x="1259" d="M-72 0l650 1366h374l230 -1366h-326l-43 301h-457l-131 -301h-297zM459 539h321l-82 546zM483 1626q0 45 33 86t96 41q43 0 87 -29.5t44 -97.5q0 -63 -42 -94t-89 -31q-61 0 -95 39t-34 86zM852 1626q0 45 33 86t96 41q43 0 87 -29.5t44 -97.5q0 -63 -42 -94t-89 -31 q-61 0 -95 39t-34 86z" />
<glyph unicode="&#xc5;" horiz-adv-x="1259" d="M-72 0l650 1366h374l230 -1366h-326l-43 301h-457l-131 -301h-297zM459 539h321l-82 546zM580 1636.5q0 77.5 57 134t145 56.5q43 0 80 -14.5t64.5 -41t44 -61.5t16.5 -74t-16.5 -72.5t-44 -59t-64.5 -41t-80 -15.5q-86 0 -144 55.5t-58 133zM702 1638.5q0 -34.5 24 -56 t56 -21.5q35 0 58.5 22.5t23.5 52.5q0 25 -10 40.5t-23.5 23.5t-26.5 11t-22 3q-29 0 -54.5 -20.5t-25.5 -55z" />
<glyph unicode="&#xc6;" horiz-adv-x="1724" d="M-98 0l829 1366h1063l-43 -260h-606l-47 -275h508l-43 -247h-506l-53 -324h616l-43 -260h-918l58 344h-334l-209 -344h-272zM512 584h244l92 546z" />
<glyph unicode="&#xc7;" horiz-adv-x="1273" d="M94 573q0 125 38 268.5t118 265.5t205 203t299 81q43 0 107.5 -10.5t133 -41t131 -88t101.5 -151.5q31 -78 37 -138.5t10 -109.5l-311 -14q1 17 0 33q0 60 -12 105q-15 56 -44.5 90t-69.5 49t-83 15q-57 0 -97.5 -19t-68 -48t-44 -60.5t-24.5 -54.5q-25 -57 -55.5 -168.5 t-30.5 -259.5q0 -18 3 -65t24.5 -95.5t67.5 -85t130 -36.5q72 0 119 26.5t78 64.5t49.5 82t30.5 78l281 -49q-43 -129 -106.5 -219t-141.5 -145.5t-168 -79.5q-77 -21 -159 -21h-28l-36 -79q27 6 55 6q76 0 119 -42t43 -95.5t-23.5 -92.5t-60.5 -65.5t-82 -39.5t-88 -13 q-63 0 -125 16t-115 51l49 86q35 -16 73 -31.5t79 -15.5q57 0 82.5 28.5t25.5 57.5q0 43 -34.5 57.5t-69.5 14.5q-12 0 -28.5 -2t-51.5 -9l82 179q-133 27 -214 99.5t-126 160.5t-59.5 177t-14.5 150z" />
<glyph unicode="&#xc8;" horiz-adv-x="1169" d="M51 0l230 1366h960l-43 -260h-641l-47 -281h537l-41 -247h-537l-55 -318h653l-43 -260h-973zM475 1651l88 157l363 -215l-56 -112z" />
<glyph unicode="&#xc9;" horiz-adv-x="1169" d="M51 0l230 1366h960l-43 -260h-641l-47 -281h537l-41 -247h-537l-55 -318h653l-43 -260h-973zM571 1593l416 215l76 -163l-445 -164z" />
<glyph unicode="&#xca;" horiz-adv-x="1169" d="M51 0l230 1366h960l-43 -260h-641l-47 -281h537l-41 -247h-537l-55 -318h653l-43 -260h-973zM401 1509l414 287l315 -287l-208 -20l-134 108l-178 -108z" />
<glyph unicode="&#xcb;" horiz-adv-x="1169" d="M51 0l230 1366h960l-43 -260h-641l-47 -281h537l-41 -247h-537l-55 -318h653l-43 -260h-973zM483 1626q0 45 33 86t96 41q43 0 87 -29.5t44 -97.5q0 -63 -42 -94t-89 -31q-61 0 -95 39t-34 86zM852 1626q0 45 33 86t96 41q43 0 87 -29.5t44 -97.5q0 -63 -42 -94t-89 -31 q-61 0 -95 39t-34 86z" />
<glyph unicode="&#xcc;" horiz-adv-x="587" d="M51 0l230 1366h313l-227 -1366h-316zM209 1651l88 157l362 -215l-55 -112z" />
<glyph unicode="&#xcd;" horiz-adv-x="587" d="M51 0l230 1366h313l-227 -1366h-316zM295 1593l416 215l75 -163l-444 -164z" />
<glyph unicode="&#xce;" horiz-adv-x="587" d="M51 0l230 1366h313l-227 -1366h-316zM94 1509l414 287l315 -287l-209 -20l-133 108l-178 -108z" />
<glyph unicode="&#xcf;" horiz-adv-x="587" d="M51 0l230 1366h313l-227 -1366h-316zM156 1626q0 45 32.5 86t96.5 41q43 0 87 -29.5t44 -97.5q0 -63 -42 -94t-89 -31q-61 0 -95 39t-34 86zM524 1626q0 45 33 86t96 41q43 0 87 -29.5t44 -97.5q0 -63 -42 -94t-89 -31q-61 0 -95 39t-34 86z" />
<glyph unicode="&#xd0;" horiz-adv-x="1337" d="M25 578l43 247h122l91 541h401q84 0 151.5 -8t124 -29.5t102.5 -57.5t89 -91q20 -25 44 -64t44 -93t34.5 -124t14.5 -156q0 -131 -27.5 -232t-68.5 -177t-86 -126t-82 -79q-59 -49 -119.5 -74.5t-122 -38t-124 -14.5t-126.5 -2h-479l96 578h-122zM393 242h164q35 0 73 2 t74.5 13t72.5 32.5t69 62.5q59 74 90 187.5t31 224.5q0 80 -15.5 146.5t-49.5 114.5t-88 74.5t-134 26.5h-139l-49 -301h258l-41 -247h-260z" />
<glyph unicode="&#xd1;" horiz-adv-x="1335" d="M51 0l230 1366h346l327 -834l11 71l18 122l19 125l14 84l71 432h254l-227 -1366h-256l-397 989q-4 -47 -11.5 -106.5t-16.5 -123t-19 -124.5l-19 -113l-86 -522h-258zM473 1647q125 104 240 104q45 0 77.5 -10t77.5 -33q16 -8 43 -19.5t49.5 -11.5t65.5 14.5t98 67.5 l68 -119l-38 -33q-24 -22 -56.5 -41.5t-73.5 -33.5t-88 -14q-43 0 -70.5 9t-44.5 17l-58 26l-35 14t-21.5 6t-18.5 1q-45 0 -85 -22.5t-62 -38.5z" />
<glyph unicode="&#xd2;" horiz-adv-x="1316" d="M96 571q0 141 39 285.5t119 262.5t199.5 192.5t283.5 74.5q123 0 222.5 -41.5t170 -120.5t109.5 -190.5t39 -251.5q0 -113 -13.5 -186.5t-33.5 -130.5q-25 -76 -70 -161t-115.5 -157.5t-172 -119.5t-240.5 -47q-123 0 -222.5 43t-169 120.5t-107.5 186t-38 241.5z M410 526q0 -53 9 -106t35.5 -95t71.5 -68t119 -26q66 0 112 27t77.5 69t51 91t32.5 92q14 53 24 96t15.5 80t7.5 72t2 69q0 27 -3 79t-24.5 102.5t-68 88.5t-132.5 38q-78 0 -132 -40t-91 -101.5t-58.5 -135.5t-31.5 -141.5t-13 -120t-3 -70.5zM475 1651l88 157l363 -215 l-56 -112z" />
<glyph unicode="&#xd3;" horiz-adv-x="1316" d="M96 571q0 141 39 285.5t119 262.5t199.5 192.5t283.5 74.5q123 0 222.5 -41.5t170 -120.5t109.5 -190.5t39 -251.5q0 -113 -13.5 -186.5t-33.5 -130.5q-25 -76 -70 -161t-115.5 -157.5t-172 -119.5t-240.5 -47q-123 0 -222.5 43t-169 120.5t-107.5 186t-38 241.5z M410 526q0 -53 9 -106t35.5 -95t71.5 -68t119 -26q66 0 112 27t77.5 69t51 91t32.5 92q14 53 24 96t15.5 80t7.5 72t2 69q0 27 -3 79t-24.5 102.5t-68 88.5t-132.5 38q-78 0 -132 -40t-91 -101.5t-58.5 -135.5t-31.5 -141.5t-13 -120t-3 -70.5zM571 1593l416 215l76 -163 l-445 -164z" />
<glyph unicode="&#xd4;" horiz-adv-x="1316" d="M96 571q0 141 39 285.5t119 262.5t199.5 192.5t283.5 74.5q123 0 222.5 -41.5t170 -120.5t109.5 -190.5t39 -251.5q0 -113 -13.5 -186.5t-33.5 -130.5q-25 -76 -70 -161t-115.5 -157.5t-172 -119.5t-240.5 -47q-123 0 -222.5 43t-169 120.5t-107.5 186t-38 241.5z M401 1509l414 287l315 -287l-208 -20l-134 108l-178 -108zM410 526q0 -53 9 -106t35.5 -95t71.5 -68t119 -26q66 0 112 27t77.5 69t51 91t32.5 92q14 53 24 96t15.5 80t7.5 72t2 69q0 27 -3 79t-24.5 102.5t-68 88.5t-132.5 38q-78 0 -132 -40t-91 -101.5t-58.5 -135.5 t-31.5 -141.5t-13 -120t-3 -70.5z" />
<glyph unicode="&#xd5;" horiz-adv-x="1316" d="M96 571q0 141 39 285.5t119 262.5t199.5 192.5t283.5 74.5q123 0 222.5 -41.5t170 -120.5t109.5 -190.5t39 -251.5q0 -113 -13.5 -186.5t-33.5 -130.5q-25 -76 -70 -161t-115.5 -157.5t-172 -119.5t-240.5 -47q-123 0 -222.5 43t-169 120.5t-107.5 186t-38 241.5z M410 526q0 -53 9 -106t35.5 -95t71.5 -68t119 -26q66 0 112 27t77.5 69t51 91t32.5 92q14 53 24 96t15.5 80t7.5 72t2 69q0 27 -3 79t-24.5 102.5t-68 88.5t-132.5 38q-78 0 -132 -40t-91 -101.5t-58.5 -135.5t-31.5 -141.5t-13 -120t-3 -70.5zM442 1647q125 104 240 104 q45 0 78 -10t78 -33q16 -8 42.5 -19.5t49 -11.5t65.5 14.5t99 67.5l67 -119l-38 -33q-24 -22 -56.5 -41.5t-73.5 -33.5t-88 -14q-43 0 -70.5 9t-43.5 17l-59 26l-35 14t-21 6t-19 1q-45 0 -85 -22.5t-62 -38.5z" />
<glyph unicode="&#xd6;" horiz-adv-x="1316" d="M96 571q0 141 39 285.5t119 262.5t199.5 192.5t283.5 74.5q123 0 222.5 -41.5t170 -120.5t109.5 -190.5t39 -251.5q0 -113 -13.5 -186.5t-33.5 -130.5q-25 -76 -70 -161t-115.5 -157.5t-172 -119.5t-240.5 -47q-123 0 -222.5 43t-169 120.5t-107.5 186t-38 241.5z M410 526q0 -53 9 -106t35.5 -95t71.5 -68t119 -26q66 0 112 27t77.5 69t51 91t32.5 92q14 53 24 96t15.5 80t7.5 72t2 69q0 27 -3 79t-24.5 102.5t-68 88.5t-132.5 38q-78 0 -132 -40t-91 -101.5t-58.5 -135.5t-31.5 -141.5t-13 -120t-3 -70.5zM483 1626q0 45 33 86t96 41 q43 0 87 -29.5t44 -97.5q0 -63 -42 -94t-89 -31q-61 0 -95 39t-34 86zM852 1626q0 45 32.5 86t96.5 41q43 0 87 -29.5t44 -97.5q0 -63 -42 -94t-89 -31q-61 0 -95 39t-34 86z" />
<glyph unicode="&#xd7;" d="M186 981l154 154l291 -291l280 280l156 -153l-281 -281l291 -291l-153 -153l-291 291l-281 -283l-155 156l280 280z" />
<glyph unicode="&#xd8;" horiz-adv-x="1316" d="M70 -106l163 249q-74 100 -107.5 204t-33.5 228q0 143 40 289t120 262.5t198.5 189.5t278.5 73q68 0 117 -8.5t83 -20.5t54 -26l33 -21l108 164h191l-176 -265q78 -92 108.5 -205.5t30.5 -232.5q0 -72 -14.5 -158t-45 -174t-81 -171t-122 -147.5t-165.5 -103t-213 -38.5 q-106 0 -174 23.5t-103 39.5l-98 -151h-192zM406 541q0 -39 4 -64.5t10 -54.5l444 676q-12 10 -39.5 23.5t-85.5 13.5q-63 0 -107 -24t-74 -55.5t-47 -63t-24 -48.5q-18 -41 -32.5 -92t-25.5 -105.5t-17 -107.5t-6 -98zM506 268q25 -16 49.5 -25.5t71.5 -9.5q63 0 107 19.5 t72 45.5t44 54.5t24 46.5q49 109 70 223.5t21 204.5q0 35 -3.5 61.5l-7.5 55.5z" />
<glyph unicode="&#xd9;" horiz-adv-x="1316" d="M113 381q0 14 2 51t10 84l141 850h336l-133 -799q-4 -23 -9 -63.5t-5 -85.5q0 -25 8 -63t51 -66.5t88 -35.5t70 -7q18 0 52 4t69.5 18.5t66.5 44t45 82.5q4 14 7 27.5t8 38.5l11 65l19 111l121 729h270l-127 -764l-23 -142q-9 -54 -18.5 -91t-19.5 -63.5t-25 -59.5 q-39 -80 -98 -130t-127.5 -80t-142.5 -40t-139 -10q-16 0 -56.5 2t-91.5 11t-107.5 27.5t-105.5 53.5q-25 18 -51.5 47t-48 66.5t-34.5 85t-13 102.5zM475 1651l88 157l363 -215l-56 -112z" />
<glyph unicode="&#xda;" horiz-adv-x="1316" d="M113 381q0 14 2 51t10 84l141 850h336l-133 -799q-4 -23 -9 -63.5t-5 -85.5q0 -25 8 -63t51 -66.5t88 -35.5t70 -7q18 0 52 4t69.5 18.5t66.5 44t45 82.5q4 14 7 27.5t8 38.5l11 65l19 111l121 729h270l-127 -764l-23 -142q-9 -54 -18.5 -91t-19.5 -63.5t-25 -59.5 q-39 -80 -98 -130t-127.5 -80t-142.5 -40t-139 -10q-16 0 -56.5 2t-91.5 11t-107.5 27.5t-105.5 53.5q-25 18 -51.5 47t-48 66.5t-34.5 85t-13 102.5zM735 1593l416 215l76 -163l-445 -164z" />
<glyph unicode="&#xdb;" horiz-adv-x="1316" d="M113 381q0 14 2 51t10 84l141 850h336l-133 -799q-4 -23 -9 -63.5t-5 -85.5q0 -25 8 -63t51 -66.5t88 -35.5t70 -7q18 0 52 4t69.5 18.5t66.5 44t45 82.5q4 14 7 27.5t8 38.5l11 65l19 111l121 729h270l-127 -764l-23 -142q-9 -54 -18.5 -91t-19.5 -63.5t-25 -59.5 q-39 -80 -98 -130t-127.5 -80t-142.5 -40t-139 -10q-16 0 -56.5 2t-91.5 11t-107.5 27.5t-105.5 53.5q-25 18 -51.5 47t-48 66.5t-34.5 85t-13 102.5zM463 1509l414 287l315 -287l-209 -20l-133 108l-178 -108z" />
<glyph unicode="&#xdc;" horiz-adv-x="1316" d="M113 381q0 14 2 51t10 84l141 850h336l-133 -799q-4 -23 -9 -63.5t-5 -85.5q0 -25 8 -63t51 -66.5t88 -35.5t70 -7q18 0 52 4t69.5 18.5t66.5 44t45 82.5q4 14 7 27.5t8 38.5l11 65l19 111l121 729h270l-127 -764l-23 -142q-9 -54 -18.5 -91t-19.5 -63.5t-25 -59.5 q-39 -80 -98 -130t-127.5 -80t-142.5 -40t-139 -10q-16 0 -56.5 2t-91.5 11t-107.5 27.5t-105.5 53.5q-25 18 -51.5 47t-48 66.5t-34.5 85t-13 102.5zM524 1626q0 45 33 86t96 41q43 0 87 -29.5t44 -97.5q0 -63 -42 -94t-89 -31q-61 0 -95 39t-34 86zM893 1626q0 45 32.5 86 t96.5 41q43 0 87 -29.5t44 -97.5q0 -63 -42 -94t-89 -31q-61 0 -95 39t-34 86z" />
<glyph unicode="&#xdd;" horiz-adv-x="1085" d="M76 1366h340l209 -541l354 541h299l-549 -793l-96 -573h-314l97 573zM571 1593l416 215l76 -163l-445 -164z" />
<glyph unicode="&#xde;" horiz-adv-x="1243" d="M51 0l230 1366h313l-31 -184h174q37 0 79 -1t86 -7.5t87 -20.5t82 -41q45 -31 76 -69.5t50.5 -81.5t27.5 -87.5t8 -85.5q0 -100 -38 -193t-93 -142q-49 -45 -95 -70t-94.5 -37t-97.5 -15t-104 -3h-291l-55 -328h-314zM461 567h235q74 0 119 20.5t70.5 50.5t34 64.5 t8.5 63.5q0 63 -28 99t-66.5 51.5t-79.5 18.5t-68 3h-164z" />
<glyph unicode="&#xdf;" horiz-adv-x="1277" d="M27 -104l139 833h-100l38 227h101q23 125 68.5 212t106 144.5t126 91.5t126 50t110 20.5t73.5 4.5q92 0 164 -24.5t122 -65.5t75.5 -95.5t25.5 -113.5q0 -53 -22.5 -102.5t-68.5 -92.5t-117.5 -75.5t-168.5 -49.5q-18 -4 -33.5 -10t-15.5 -16.5t11.5 -15.5t60.5 -23 q104 -39 174 -82t113 -89t61 -98.5t18 -109.5q0 -78 -32.5 -155t-94 -138.5t-148.5 -100t-194 -38.5q-12 0 -37.5 1t-62.5 8t-83 21.5t-95 38.5l102 178q18 -10 58.5 -27.5t109.5 -17.5q92 0 141.5 40t49.5 110q0 33 -15.5 58.5t-46 49t-79 48t-115.5 55.5q-51 23 -94 67.5 t-43 116.5q0 45 15 84t38.5 72t48.5 57.5t43 40.5q70 4 114 23.5t67.5 44t31.5 50t8 44.5q0 49 -39 83t-110 34q-51 0 -96.5 -19.5t-73.5 -60.5q-14 -23 -24.5 -44.5t-19 -58.5t-17.5 -94l-23 -147l-158 -944h-313z" />
<glyph unicode="&#xe0;" horiz-adv-x="1107" d="M23 250q0 86 35.5 148.5t93 103.5t131 66.5t149.5 39t149 18.5l130 9q6 16 12 38.5t6 53.5q0 57 -37 89t-96 32q-55 0 -90 -16.5t-58.5 -40t-36 -51t-20.5 -48.5l-266 31q12 39 45 101.5t119 121.5q74 51 166 69.5t163 18.5q127 0 205 -31.5t121 -76.5t57.5 -95.5 t14.5 -87.5q0 -18 -1 -33.5t-4 -38t-9.5 -58t-14.5 -93.5l-45 -260q-10 -57 -15 -99t-5 -93q0 -20 1 -35t5 -33h-285q-2 37 -2 56.5t2 35.5q0 4 1 16.5t3 27t3 26.5t1 14q-10 -27 -41.5 -74t-105.5 -86q-43 -23 -87 -33t-91 -10q-68 0 -124.5 21.5t-96 58.5t-61 87.5 t-21.5 109.5zM330 285q0 -47 27.5 -85t86.5 -38q57 0 99.5 28.5t71 75.5t47 105.5t28.5 120.5q-21 0 -49.5 -2.5t-60 -7.5t-63.5 -12t-58 -17q-43 -16 -68.5 -40t-39 -47.5t-17.5 -45t-4 -35.5zM393 1358l92 155l359 -241l-62 -111z" />
<glyph unicode="&#xe1;" horiz-adv-x="1107" d="M23 250q0 86 35.5 148.5t93 103.5t131 66.5t149.5 39t149 18.5l130 9q6 16 12 38.5t6 53.5q0 57 -37 89t-96 32q-55 0 -90 -16.5t-58.5 -40t-36 -51t-20.5 -48.5l-266 31q12 39 45 101.5t119 121.5q74 51 166 69.5t163 18.5q127 0 205 -31.5t121 -76.5t57.5 -95.5 t14.5 -87.5q0 -18 -1 -33.5t-4 -38t-9.5 -58t-14.5 -93.5l-45 -260q-10 -57 -15 -99t-5 -93q0 -20 1 -35t5 -33h-285q-2 37 -2 56.5t2 35.5q0 4 1 16.5t3 27t3 26.5t1 14q-10 -27 -41.5 -74t-105.5 -86q-43 -23 -87 -33t-91 -10q-68 0 -124.5 21.5t-96 58.5t-61 87.5 t-21.5 109.5zM330 285q0 -47 27.5 -85t86.5 -38q57 0 99.5 28.5t71 75.5t47 105.5t28.5 120.5q-21 0 -49.5 -2.5t-60 -7.5t-63.5 -12t-58 -17q-43 -16 -68.5 -40t-39 -47.5t-17.5 -45t-4 -35.5zM471 1272l410 241l75 -161l-436 -191z" />
<glyph unicode="&#xe2;" horiz-adv-x="1107" d="M23 250q0 86 35.5 148.5t93 103.5t131 66.5t149.5 39t149 18.5l130 9q6 16 12 38.5t6 53.5q0 57 -37 89t-96 32q-55 0 -90 -16.5t-58.5 -40t-36 -51t-20.5 -48.5l-266 31q12 39 45 101.5t119 121.5q74 51 166 69.5t163 18.5q127 0 205 -31.5t121 -76.5t57.5 -95.5 t14.5 -87.5q0 -18 -1 -33.5t-4 -38t-9.5 -58t-14.5 -93.5l-45 -260q-10 -57 -15 -99t-5 -93q0 -20 1 -35t5 -33h-285q-2 37 -2 56.5t2 35.5q0 4 1 16.5t3 27t3 26.5t1 14q-10 -27 -41.5 -74t-105.5 -86q-43 -23 -87 -33t-91 -10q-68 0 -124.5 21.5t-96 58.5t-61 87.5 t-21.5 109.5zM295 1188l418 313l307 -313l-199 -21l-135 138l-192 -138zM330 285q0 -47 27.5 -85t86.5 -38q57 0 99.5 28.5t71 75.5t47 105.5t28.5 120.5q-21 0 -49.5 -2.5t-60 -7.5t-63.5 -12t-58 -17q-43 -16 -68.5 -40t-39 -47.5t-17.5 -45t-4 -35.5z" />
<glyph unicode="&#xe3;" horiz-adv-x="1107" d="M23 250q0 86 35.5 148.5t93 103.5t131 66.5t149.5 39t149 18.5l130 9q6 16 12 38.5t6 53.5q0 57 -37 89t-96 32q-55 0 -90 -16.5t-58.5 -40t-36 -51t-20.5 -48.5l-266 31q12 39 45 101.5t119 121.5q74 51 166 69.5t163 18.5q127 0 205 -31.5t121 -76.5t57.5 -95.5 t14.5 -87.5q0 -18 -1 -33.5t-4 -38t-9.5 -58t-14.5 -93.5l-45 -260q-10 -57 -15 -99t-5 -93q0 -20 1 -35t5 -33h-285q-2 37 -2 56.5t2 35.5q0 4 1 16.5t3 27t3 26.5t1 14q-10 -27 -41.5 -74t-105.5 -86q-43 -23 -87 -33t-91 -10q-68 0 -124.5 21.5t-96 58.5t-61 87.5 t-21.5 109.5zM309 1313q57 49 113.5 76.5t114.5 27.5q41 0 72.5 -10t72.5 -33q16 -10 40.5 -20t47.5 -10q14 0 53 11t101 68l63 -110l-35 -34q-23 -22 -54.5 -42t-70.5 -34.5t-84 -14.5q-41 0 -66.5 9t-41.5 17l-54 26l-31.5 14.5t-20 6.5t-17.5 1q-37 0 -74 -19.5 t-65 -42.5zM330 285q0 -47 27.5 -85t86.5 -38q57 0 99.5 28.5t71 75.5t47 105.5t28.5 120.5q-21 0 -49.5 -2.5t-60 -7.5t-63.5 -12t-58 -17q-43 -16 -68.5 -40t-39 -47.5t-17.5 -45t-4 -35.5z" />
<glyph unicode="&#xe4;" horiz-adv-x="1107" d="M23 250q0 86 35.5 148.5t93 103.5t131 66.5t149.5 39t149 18.5l130 9q6 16 12 38.5t6 53.5q0 57 -37 89t-96 32q-55 0 -90 -16.5t-58.5 -40t-36 -51t-20.5 -48.5l-266 31q12 39 45 101.5t119 121.5q74 51 166 69.5t163 18.5q127 0 205 -31.5t121 -76.5t57.5 -95.5 t14.5 -87.5q0 -18 -1 -33.5t-4 -38t-9.5 -58t-14.5 -93.5l-45 -260q-10 -57 -15 -99t-5 -93q0 -20 1 -35t5 -33h-285q-2 37 -2 56.5t2 35.5q0 4 1 16.5t3 27t3 26.5t1 14q-10 -27 -41.5 -74t-105.5 -86q-43 -23 -87 -33t-91 -10q-68 0 -124.5 21.5t-96 58.5t-61 87.5 t-21.5 109.5zM330 285q0 -47 27.5 -85t86.5 -38q57 0 99.5 28.5t71 75.5t47 105.5t28.5 120.5q-21 0 -49.5 -2.5t-60 -7.5t-63.5 -12t-58 -17q-43 -16 -68.5 -40t-39 -47.5t-17.5 -45t-4 -35.5zM399 1307q0 41 31 78.5t88 37.5q18 0 40 -7t40 -20.5t29.5 -36t11.5 -52.5 q0 -57 -38 -86t-83 -29q-57 0 -88 36t-31 79zM733 1307q0 41 31 78.5t88 37.5q18 0 39.5 -7t40 -20.5t30 -36t11.5 -52.5q0 -57 -38 -86t-83 -29q-57 0 -88 36t-31 79z" />
<glyph unicode="&#xe5;" horiz-adv-x="1107" d="M23 250q0 86 35.5 148.5t93 103.5t131 66.5t149.5 39t149 18.5l130 9q6 16 12 38.5t6 53.5q0 57 -37 89t-96 32q-55 0 -90 -16.5t-58.5 -40t-36 -51t-20.5 -48.5l-266 31q12 39 45 101.5t119 121.5q74 51 166 69.5t163 18.5q127 0 205 -31.5t121 -76.5t57.5 -95.5 t14.5 -87.5q0 -18 -1 -33.5t-4 -38t-9.5 -58t-14.5 -93.5l-45 -260q-10 -57 -15 -99t-5 -93q0 -20 1 -35t5 -33h-285q-2 37 -2 56.5t2 35.5q0 4 1 16.5t3 27t3 26.5t1 14q-10 -27 -41.5 -74t-105.5 -86q-43 -23 -87 -33t-91 -10q-68 0 -124.5 21.5t-96 58.5t-61 87.5 t-21.5 109.5zM330 285q0 -47 27.5 -85t86.5 -38q57 0 99.5 28.5t71 75.5t47 105.5t28.5 120.5q-21 0 -49.5 -2.5t-60 -7.5t-63.5 -12t-58 -17q-43 -16 -68.5 -40t-39 -47.5t-17.5 -45t-4 -35.5zM498 1325q0 33 12 66.5t36.5 60.5t60.5 44t81 17q43 0 80 -15t62.5 -41.5 t40 -59.5t14.5 -70t-14.5 -71.5t-40 -60.5t-62.5 -42t-80 -16t-79 16t-60.5 44t-37.5 60.5t-13 67.5zM610 1325q0 -31 22.5 -53.5t57.5 -22.5t58.5 21.5t23.5 54.5t-23.5 54.5t-56.5 21.5q-37 0 -59.5 -23.5t-22.5 -52.5z" />
<glyph unicode="&#xe6;" horiz-adv-x="1720" d="M20 260q0 37 7.5 75t30 77t62.5 75.5t105 67.5q43 20 89 32.5t106.5 21.5t136.5 16l176 14q8 29 12.5 48.5t4.5 41.5q0 66 -39 94.5t-99 28.5q-57 0 -95 -16.5t-60.5 -40t-34.5 -50t-19 -45.5l-274 37q16 35 45 86t84 99.5t144.5 82t226.5 33.5q66 0 114 -9t81.5 -22.5 t58.5 -29.5l45 -31q20 14 45.5 29.5t59.5 30t79 23.5t105 9q98 0 180 -30.5t141 -91t93 -146.5t34 -197q0 -35 -2 -63.5t-6 -52.5h-678q-6 -37 -7 -52.5t-1 -25.5q0 -92 49 -144.5t133 -52.5q51 0 88 20.5t61.5 48.5t39 54.5t20.5 40.5l256 -43q-14 -31 -44 -87t-85 -109.5 t-140 -93.5t-210 -40q-102 0 -172 26t-116 61.5t-73.5 74.5t-42.5 66q-14 -23 -40.5 -60t-71.5 -72.5t-113 -61t-164 -25.5q-84 0 -145.5 23.5t-101.5 62.5t-59.5 89t-19.5 103zM334 285q0 -35 12 -57.5t30.5 -37t40 -19.5t40.5 -5q55 0 97 28.5t71.5 75.5t49 105.5 t32.5 120.5q-47 -2 -112 -8.5t-123 -28t-98 -62t-40 -112.5zM1001 625h377q2 14 3 30.5t1 30.5q0 57 -19.5 90t-46 49.5t-52 20.5t-39.5 4q-66 0 -107 -28.5t-65.5 -65.5t-36 -75t-15.5 -56z" />
<glyph unicode="&#xe7;" horiz-adv-x="1038" d="M63 442q0 88 28 191.5t92.5 192.5t167 149.5t253.5 60.5q125 0 205 -43t126 -104.5t62 -129.5q15 -61 15 -107v-11l-264 -16v12q0 49 -15 82q-16 37 -38.5 57.5t-49.5 28.5t-47 8q-53 0 -90 -29.5t-61.5 -74.5t-37 -97.5t-18.5 -98.5t-7 -78t-1 -36q0 -10 2 -40.5 t16.5 -63.5t46 -57.5t89.5 -24.5q49 0 82.5 20.5t55 49t34 58.5t18.5 50l248 -33q-47 -135 -111.5 -210.5t-131 -112.5t-127 -45t-97.5 -10l-43 -80q18 2 35 2q55 0 93 -26q50 -34 50 -103q0 -86 -67.5 -135.5t-161.5 -49.5q-74 0 -123 21.5t-76 36.5l49 86q20 -12 55 -28.5 t72 -16.5q47 0 65.5 25.5t18.5 47.5q0 20 -10 32.5t-25.5 20t-32 9.5t-28.5 2q-14 0 -30.5 -2t-22.5 -2l86 168q-121 25 -190.5 85t-104.5 130.5t-44.5 137t-9.5 101.5z" />
<glyph unicode="&#xe8;" horiz-adv-x="1079" d="M55 442q0 96 33 202t98.5 193t167 144t240.5 57q98 0 178 -33.5t136.5 -94t86 -145.5t29.5 -187q0 -23 -2 -47.5t-8 -73.5h-656q-4 -33 -5 -47.5t-1 -28.5q0 -61 18.5 -100t44 -60.5t55.5 -29t54 -7.5q53 0 89 20.5t59.5 47.5t36 53.5t16.5 40.5l250 -43 q-59 -162 -181 -246t-288 -84q-115 0 -200 40t-140 106.5t-83 150.5t-28 172zM379 625h366q2 12 3.5 26.5t1.5 32.5q0 49 -14.5 81t-38 51.5t-50 27.5t-51.5 8q-61 0 -100 -25.5t-62.5 -61.5t-36 -74.5t-18.5 -65.5zM379 1358l92 155l358 -241l-61 -111z" />
<glyph unicode="&#xe9;" horiz-adv-x="1079" d="M55 442q0 96 33 202t98.5 193t167 144t240.5 57q98 0 178 -33.5t136.5 -94t86 -145.5t29.5 -187q0 -23 -2 -47.5t-8 -73.5h-656q-4 -33 -5 -47.5t-1 -28.5q0 -61 18.5 -100t44 -60.5t55.5 -29t54 -7.5q53 0 89 20.5t59.5 47.5t36 53.5t16.5 40.5l250 -43 q-59 -162 -181 -246t-288 -84q-115 0 -200 40t-140 106.5t-83 150.5t-28 172zM379 625h366q2 12 3.5 26.5t1.5 32.5q0 49 -14.5 81t-38 51.5t-50 27.5t-51.5 8q-61 0 -100 -25.5t-62.5 -61.5t-36 -74.5t-18.5 -65.5zM457 1272l409 241l76 -161l-436 -191z" />
<glyph unicode="&#xea;" horiz-adv-x="1079" d="M55 442q0 96 33 202t98.5 193t167 144t240.5 57q98 0 178 -33.5t136.5 -94t86 -145.5t29.5 -187q0 -23 -2 -47.5t-8 -73.5h-656q-4 -33 -5 -47.5t-1 -28.5q0 -61 18.5 -100t44 -60.5t55.5 -29t54 -7.5q53 0 89 20.5t59.5 47.5t36 53.5t16.5 40.5l250 -43 q-59 -162 -181 -246t-288 -84q-115 0 -200 40t-140 106.5t-83 150.5t-28 172zM217 1188l418 313l307 -313l-199 -21l-135 138l-192 -138zM379 625h366q2 12 3.5 26.5t1.5 32.5q0 49 -14.5 81t-38 51.5t-50 27.5t-51.5 8q-61 0 -100 -25.5t-62.5 -61.5t-36 -74.5t-18.5 -65.5 z" />
<glyph unicode="&#xeb;" horiz-adv-x="1079" d="M55 442q0 96 33 202t98.5 193t167 144t240.5 57q98 0 178 -33.5t136.5 -94t86 -145.5t29.5 -187q0 -23 -2 -47.5t-8 -73.5h-656q-4 -33 -5 -47.5t-1 -28.5q0 -61 18.5 -100t44 -60.5t55.5 -29t54 -7.5q53 0 89 20.5t59.5 47.5t36 53.5t16.5 40.5l250 -43 q-59 -162 -181 -246t-288 -84q-115 0 -200 40t-140 106.5t-83 150.5t-28 172zM379 625h366q2 12 3.5 26.5t1.5 32.5q0 49 -14.5 81t-38 51.5t-50 27.5t-51.5 8q-61 0 -100 -25.5t-62.5 -61.5t-36 -74.5t-18.5 -65.5zM385 1307q0 41 30.5 78.5t88.5 37.5q18 0 39.5 -7 t40 -20.5t30 -36t11.5 -52.5q0 -57 -38 -86t-83 -29q-57 0 -88 36t-31 79zM719 1307q0 41 30.5 78.5t88.5 37.5q18 0 39.5 -7t40 -20.5t29.5 -36t11 -52.5q0 -57 -37.5 -86t-82.5 -29q-57 0 -88 36t-31 79z" />
<glyph unicode="&#xec;" horiz-adv-x="550" d="M39 0l170 1018h305l-170 -1018h-305zM115 1358l92 155l358 -241l-61 -111z" />
<glyph unicode="&#xed;" horiz-adv-x="550" d="M39 0l170 1018h305l-170 -1018h-305zM193 1272l409 241l76 -161l-436 -191z" />
<glyph unicode="&#xee;" horiz-adv-x="550" d="M16 1188l418 313l307 -313l-198 -21l-135 138l-193 -138zM39 0l170 1018h305l-170 -1018h-305z" />
<glyph unicode="&#xef;" horiz-adv-x="550" d="M39 0l170 1018h305l-170 -1018h-305zM121 1307q0 41 30.5 78.5t88.5 37.5q18 0 39.5 -7t40 -20.5t29.5 -36t11 -52.5q0 -57 -37.5 -86t-82.5 -29q-57 0 -88 36t-31 79zM455 1307q0 41 30.5 78.5t87.5 37.5q18 0 40 -7t40.5 -20.5t29.5 -36t11 -52.5q0 -57 -38 -86 t-83 -29q-57 0 -87.5 36t-30.5 79z" />
<glyph unicode="&#xf0;" horiz-adv-x="1083" d="M61 457q0 141 49.5 247.5t123 176t160.5 104.5t163 35q102 0 164 -66q-12 43 -29.5 94.5t-42.5 106.5l-274 -119l-74 146l270 118l-20 32l-21 32l209 92q20 -23 45 -63l283 123l72 -150l-269 -117q66 -123 115 -282.5t49 -335.5q0 -158 -41 -279t-112.5 -203.5 t-168 -125.5t-208.5 -43q-98 0 -180 34.5t-140.5 97t-90.5 151t-32 194.5zM362 373q0 -92 34 -144.5t112 -52.5q16 0 36.5 3t43 15.5t43 35t37.5 63.5q23 57 43 149.5t20 196.5q0 86 -43 134t-106 48q-45 0 -85 -25.5t-71 -78.5q-16 -29 -28.5 -74t-19.5 -94t-11.5 -96 t-4.5 -80z" />
<glyph unicode="&#xf1;" horiz-adv-x="1116" d="M37 0l170 1018h276l-32 -193q66 121 146.5 166t158.5 45q66 0 116 -22.5t84.5 -60.5t53 -88t18.5 -105q0 -16 -1 -31.5t-4 -35t-7 -48.5t-12 -74l-95 -571h-295l101 594q2 10 4 26l4 31l4 32q2 15 2 24q0 39 -15.5 61.5t-33.5 31.5t-34.5 11t-20.5 2q-53 0 -94.5 -30.5 t-61.5 -73.5q-12 -23 -19.5 -42.5t-12.5 -41t-10 -50t-11 -71.5l-84 -504h-295zM313 1313q57 49 113.5 76.5t114.5 27.5q41 0 72.5 -10t72.5 -33q16 -10 41 -20.5t47 -10.5q14 0 53 11.5t101 68.5l63 -110l-35 -34q-23 -22 -54.5 -42t-70 -34.5t-83.5 -14.5q-41 0 -67 9 t-42 17l-54 26l-31.5 14.5t-20 6.5t-17.5 1q-37 0 -73.5 -19.5t-65.5 -42.5z" />
<glyph unicode="&#xf2;" horiz-adv-x="1093" d="M63 444q0 33 4.5 68t9.5 64.5t10 51.5l7 29q37 117 95.5 192t126 118t138 59t132.5 16q98 0 180 -33.5t140.5 -97t91 -151.5t32.5 -195q0 -119 -38 -225.5t-106.5 -186t-164.5 -126.5t-211 -47q-96 0 -178 32.5t-141.5 93t-93.5 146.5t-34 192zM365 371q0 -31 4 -66 t19 -64.5t46 -48t82 -18.5q45 0 84 23.5t68 93.5q18 43 30.5 93t19.5 100.5t11 94.5t4 72q0 16 -2 49t-16.5 65t-44 56.5t-84.5 24.5q-86 0 -130 -64.5t-67 -177.5q-16 -76 -20 -132t-4 -101zM385 1358l92 155l359 -241l-62 -111z" />
<glyph unicode="&#xf3;" horiz-adv-x="1093" d="M63 444q0 33 4.5 68t9.5 64.5t10 51.5l7 29q37 117 95.5 192t126 118t138 59t132.5 16q98 0 180 -33.5t140.5 -97t91 -151.5t32.5 -195q0 -119 -38 -225.5t-106.5 -186t-164.5 -126.5t-211 -47q-96 0 -178 32.5t-141.5 93t-93.5 146.5t-34 192zM365 371q0 -31 4 -66 t19 -64.5t46 -48t82 -18.5q45 0 84 23.5t68 93.5q18 43 30.5 93t19.5 100.5t11 94.5t4 72q0 16 -2 49t-16.5 65t-44 56.5t-84.5 24.5q-86 0 -130 -64.5t-67 -177.5q-16 -76 -20 -132t-4 -101zM463 1272l409 241l76 -161l-436 -191z" />
<glyph unicode="&#xf4;" horiz-adv-x="1093" d="M63 444q0 33 4.5 68t9.5 64.5t10 51.5l7 29q37 117 95.5 192t126 118t138 59t132.5 16q98 0 180 -33.5t140.5 -97t91 -151.5t32.5 -195q0 -119 -38 -225.5t-106.5 -186t-164.5 -126.5t-211 -47q-96 0 -178 32.5t-141.5 93t-93.5 146.5t-34 192zM225 1188l418 313 l307 -313l-198 -21l-136 138l-192 -138zM365 371q0 -31 4 -66t19 -64.5t46 -48t82 -18.5q45 0 84 23.5t68 93.5q18 43 30.5 93t19.5 100.5t11 94.5t4 72q0 16 -2 49t-16.5 65t-44 56.5t-84.5 24.5q-86 0 -130 -64.5t-67 -177.5q-16 -76 -20 -132t-4 -101z" />
<glyph unicode="&#xf5;" horiz-adv-x="1093" d="M63 444q0 33 4.5 68t9.5 64.5t10 51.5l7 29q37 117 95.5 192t126 118t138 59t132.5 16q98 0 180 -33.5t140.5 -97t91 -151.5t32.5 -195q0 -119 -38 -225.5t-106.5 -186t-164.5 -126.5t-211 -47q-96 0 -178 32.5t-141.5 93t-93.5 146.5t-34 192zM301 1313 q57 49 113.5 76.5t113.5 27.5q41 0 73 -10t73 -33q16 -10 40.5 -20.5t47.5 -10.5q14 0 53 11.5t100 68.5l64 -110l-35 -34q-23 -22 -54.5 -42t-70.5 -34.5t-84 -14.5q-41 0 -66.5 9t-41.5 17l-55 26l-31.5 14.5t-19.5 6.5t-17 1q-37 0 -74 -19.5t-65 -42.5zM365 371 q0 -31 4 -66t19 -64.5t46 -48t82 -18.5q45 0 84 23.5t68 93.5q18 43 30.5 93t19.5 100.5t11 94.5t4 72q0 16 -2 49t-16.5 65t-44 56.5t-84.5 24.5q-86 0 -130 -64.5t-67 -177.5q-16 -76 -20 -132t-4 -101z" />
<glyph unicode="&#xf6;" horiz-adv-x="1093" d="M63 444q0 33 4.5 68t9.5 64.5t10 51.5l7 29q37 117 95.5 192t126 118t138 59t132.5 16q98 0 180 -33.5t140.5 -97t91 -151.5t32.5 -195q0 -119 -38 -225.5t-106.5 -186t-164.5 -126.5t-211 -47q-96 0 -178 32.5t-141.5 93t-93.5 146.5t-34 192zM365 371q0 -31 4 -66 t19 -64.5t46 -48t82 -18.5q45 0 84 23.5t68 93.5q18 43 30.5 93t19.5 100.5t11 94.5t4 72q0 16 -2 49t-16.5 65t-44 56.5t-84.5 24.5q-86 0 -130 -64.5t-67 -177.5q-16 -76 -20 -132t-4 -101zM391 1307q0 41 31 78.5t88 37.5q18 0 39.5 -7t40 -20.5t30 -36t11.5 -52.5 q0 -57 -38 -86t-83 -29q-57 0 -88 36t-31 79zM725 1307q0 41 30.5 78.5t88.5 37.5q18 0 39.5 -7t40 -20.5t30 -36t11.5 -52.5q0 -57 -38 -86t-83 -29q-57 0 -88 36t-31 79z" />
<glyph unicode="&#xf7;" d="M125 580v219h1012v-219h-1012zM494 334q0 55 38.5 95t98.5 40q53 0 94 -39t41 -96.5t-40 -97t-95 -39.5q-57 0 -97 40t-40 97zM494 1047q0 55 39.5 95t95 40t96.5 -39t41 -96q0 -59 -40 -98.5t-97.5 -39.5t-96 40.5t-38.5 97.5z" />
<glyph unicode="&#xf8;" horiz-adv-x="1093" d="M51 -88l142 192q-66 66 -98 156t-32 184q0 113 35 221.5t100.5 191.5t161 134t218.5 51q53 0 120.5 -13t118.5 -48l94 127h156l-152 -207l34 -45q19 -27 38 -67.5t31 -99t12 -138.5q0 -90 -31.5 -191.5t-96 -185.5t-164 -139t-232.5 -55q-80 0 -131 16t-86 33l-84 -117 h-154zM365 440q-1 -18 -1 -34q0 -32 3 -54l321 453q-29 31 -62.5 36t-43.5 5q-47 0 -80 -22.5t-54.5 -56.5t-35 -77t-21.5 -82q-24 -113 -26 -168zM414 205q18 -12 39.5 -21.5t56.5 -9.5q66 0 100 31q36 31 52 65q27 57 47 148.5t20 226.5z" />
<glyph unicode="&#xf9;" horiz-adv-x="1097" d="M86 236q0 16 1 30.5t3 32.5t6 43t10 66l103 610h293l-107 -629q0 -4 -2 -15.5t-3 -24.5t-3 -27.5t-2 -22.5q0 -45 24.5 -66.5t59.5 -21.5t73 19.5t64 54.5q16 25 27.5 47t20 49t15.5 61.5t15 85.5l82 490h295l-170 -1018h-270l30 182l-35 -53q-23 -35 -59.5 -68.5 t-89.5 -59.5t-125 -26q-43 0 -88 12.5t-83 43t-61.5 81t-23.5 124.5zM285 1358l92 155l358 -241l-61 -111z" />
<glyph unicode="&#xfa;" horiz-adv-x="1097" d="M86 236q0 16 1 30.5t3 32.5t6 43t10 66l103 610h293l-107 -629q0 -4 -2 -15.5t-3 -24.5t-3 -27.5t-2 -22.5q0 -45 24.5 -66.5t59.5 -21.5t73 19.5t64 54.5q16 25 27.5 47t20 49t15.5 61.5t15 85.5l82 490h295l-170 -1018h-270l30 182l-35 -53q-23 -35 -59.5 -68.5 t-89.5 -59.5t-125 -26q-43 0 -88 12.5t-83 43t-61.5 81t-23.5 124.5zM465 1272l409 241l76 -161l-436 -191z" />
<glyph unicode="&#xfb;" horiz-adv-x="1097" d="M86 236q0 16 1 30.5t3 32.5t6 43t10 66l103 610h293l-107 -629q0 -4 -2 -15.5t-3 -24.5t-3 -27.5t-2 -22.5q0 -45 24.5 -66.5t59.5 -21.5t73 19.5t64 54.5q16 25 27.5 47t20 49t15.5 61.5t15 85.5l82 490h295l-170 -1018h-270l30 182l-35 -53q-23 -35 -59.5 -68.5 t-89.5 -59.5t-125 -26q-43 0 -88 12.5t-83 43t-61.5 81t-23.5 124.5zM289 1188l418 313l307 -313l-199 -21l-135 138l-193 -138z" />
<glyph unicode="&#xfc;" horiz-adv-x="1097" d="M86 236q0 16 1 30.5t3 32.5t6 43t10 66l103 610h293l-107 -629q0 -4 -2 -15.5t-3 -24.5t-3 -27.5t-2 -22.5q0 -45 24.5 -66.5t59.5 -21.5t73 19.5t64 54.5q16 25 27.5 47t20 49t15.5 61.5t15 85.5l82 490h295l-170 -1018h-270l30 182l-35 -53q-23 -35 -59.5 -68.5 t-89.5 -59.5t-125 -26q-43 0 -88 12.5t-83 43t-61.5 81t-23.5 124.5zM393 1307q0 41 31 78.5t88 37.5q18 0 39.5 -7t40 -20.5t30 -36t11.5 -52.5q0 -57 -38 -86t-83 -29q-57 0 -88 36t-31 79zM727 1307q0 41 30.5 78.5t88.5 37.5q18 0 39.5 -7t40 -20.5t30 -36t11.5 -52.5 q0 -57 -38 -86t-83 -29q-57 0 -88 36t-31 79z" />
<glyph unicode="&#xfd;" horiz-adv-x="921" d="M-43 -350l16 225q53 -6 76 -8t47 -2q49 0 83 10t55.5 28.5t37 45t27.5 61.5l-233 1008h307l121 -619l276 619h229l-454 -963q-51 -106 -93 -184t-92.5 -128t-119 -74.5t-174.5 -24.5q-23 0 -52.5 1t-56.5 5zM377 1272l409 241l76 -161l-436 -191z" />
<glyph unicode="&#xfe;" horiz-adv-x="1105" d="M-20 -356l286 1722h295l-82 -492q16 25 37 52.5t51.5 50t71.5 38t96 15.5q63 0 120.5 -26.5t98.5 -80t65.5 -131t24.5 -180.5q0 -111 -27.5 -223.5t-81.5 -203.5t-134 -148t-185 -57q-86 0 -158.5 41.5t-101.5 125.5l-84 -503h-292zM395 358q0 -51 14.5 -85.5t36 -55 t45 -29t44.5 -8.5q51 0 84.5 33t55 80t33.5 101l19 95q4 22 10 73.5t6 99.5q0 29 -7 57.5t-22.5 52t-40 38.5t-59.5 15q-53 0 -97 -36.5t-68 -108.5q-6 -20 -15.5 -64.5t-17.5 -93.5t-14.5 -94t-6.5 -70z" />
<glyph unicode="&#xff;" horiz-adv-x="921" d="M-43 -350l16 225q53 -6 76 -8t47 -2q49 0 83 10t55.5 28.5t37 45t27.5 61.5l-233 1008h307l121 -619l276 619h229l-454 -963q-51 -106 -93 -184t-92.5 -128t-119 -74.5t-174.5 -24.5q-23 0 -52.5 1t-56.5 5zM305 1307q0 41 31 78.5t88 37.5q18 0 39.5 -7t40 -20.5t30 -36 t11.5 -52.5q0 -57 -38 -86t-83 -29q-57 0 -88 36t-31 79zM639 1307q0 41 30.5 78.5t88.5 37.5q18 0 39.5 -7t40 -20.5t30 -36t11.5 -52.5q0 -57 -38 -86t-83 -29q-57 0 -88 36t-31 79z" />
<glyph unicode="&#x152;" horiz-adv-x="1861" d="M98 569q0 145 39 293t118 266.5t199.5 193.5t286.5 75q104 0 174 -24.5t111 -45.5l6 39h912l-43 -260h-625l-47 -279h514l-41 -247h-514l-53 -320h624l-45 -260h-887l11 57q-53 -39 -116 -56t-128 -17q-86 0 -174 31.5t-160 102t-117 181t-45 270.5zM420 543 q0 -49 10 -103.5t36 -99.5t70 -74.5t109 -29.5q63 0 112.5 26.5t90.5 73.5l113 684q-23 47 -52.5 72.5t-58.5 37t-52.5 13.5t-31.5 2q-31 0 -65.5 -9.5t-70.5 -33t-69 -61t-59 -95.5q-20 -43 -35.5 -95t-26 -107.5t-15.5 -107.5t-5 -93z" />
<glyph unicode="&#x153;" horiz-adv-x="1697" d="M63 444q0 119 36 226.5t102.5 189.5t164 130t220.5 48q66 0 114 -11t83.5 -29.5t61.5 -41.5l48 -43q14 14 38.5 35t63.5 41.5t92.5 34.5t124.5 14q70 0 146 -22.5t139.5 -76.5t104 -146.5t40.5 -229.5q0 -39 -2 -63.5t-4 -40.5h-657q-2 -17 -3 -35t-1 -43q0 -33 8 -69 t28.5 -64.5t52.5 -48t81 -19.5q55 0 92 21.5t61.5 50.5t37 55.5t16.5 38.5l254 -37q-43 -111 -104.5 -178.5t-129 -103t-132 -47t-110.5 -11.5q-66 0 -116.5 13.5t-88.5 33t-64.5 41l-43.5 35.5q-14 -14 -39.5 -34.5t-64.5 -40t-92.5 -34t-124.5 -14.5q-100 0 -180 37 t-136.5 101.5t-86.5 151.5t-30 185zM365 367q0 -31 4 -66t19 -64.5t46 -48t82 -18.5q45 0 84 23.5t68 93.5q18 43 30.5 93t19.5 100t11 94t4 73q0 16 -2 49t-16.5 65t-44 56.5t-84.5 24.5q-86 0 -130 -64.5t-67 -177.5q-16 -76 -20 -132t-4 -101zM1001 625h365q3 30 3 53 q0 31 -5 51q-12 66 -60.5 94.5t-95.5 28.5q-84 0 -137.5 -63.5t-69.5 -163.5z" />
<glyph unicode="&#x178;" horiz-adv-x="1085" d="M76 1366h340l209 -541l354 541h299l-549 -793l-96 -573h-314l97 573zM432 1626q0 45 33 86t96 41q43 0 87 -29.5t44 -97.5q0 -63 -42 -94t-89 -31q-61 0 -95 39t-34 86zM801 1626q0 45 32.5 86t96.5 41q43 0 87 -29.5t44 -97.5q0 -63 -42 -94t-89 -31q-61 0 -95 39 t-34 86z" />
<glyph unicode="&#x2c6;" horiz-adv-x="1024" d="M252 1188l418 313l307 -313l-199 -21l-135 138l-192 -138z" />
<glyph unicode="&#x2dc;" horiz-adv-x="1024" d="M266 1313q57 49 113.5 76.5t114.5 27.5q41 0 72.5 -10t72.5 -33q16 -10 41 -20.5t47 -10.5q14 0 53 11.5t101 68.5l63 -110l-35 -34q-23 -22 -54.5 -42t-70.5 -34.5t-84 -14.5q-41 0 -66.5 9t-41.5 17l-54 26l-31.5 14.5t-20 6.5t-17.5 1q-37 0 -74 -19.5t-65 -42.5z" />
<glyph unicode="&#x2013;" horiz-adv-x="1024" d="M57 393l37 223h873l-37 -223h-873z" />
<glyph unicode="&#x2014;" horiz-adv-x="2048" d="M-18 393l36 223h2048l-36 -223h-2048z" />
<glyph unicode="&#x2018;" horiz-adv-x="505" d="M164 786l45 269l235 311h113l-195 -287h125l-49 -293h-274z" />
<glyph unicode="&#x2019;" horiz-adv-x="505" d="M141 788l195 285h-125l49 293h275l-46 -268l-235 -310h-113z" />
<glyph unicode="&#x201a;" horiz-adv-x="505" d="M-39 -285l195 285h-125l49 293h274l-45 -268l-235 -310h-113z" />
<glyph unicode="&#x201c;" horiz-adv-x="903" d="M164 786l45 269l235 311h113l-195 -287h125l-49 -293h-274zM561 786l45 269l236 311h112l-194 -287h125l-49 -293h-275z" />
<glyph unicode="&#x201d;" horiz-adv-x="903" d="M141 788l195 285h-125l49 293h275l-46 -268l-235 -310h-113zM539 788l194 285h-125l49 293h275l-45 -268l-236 -310h-112z" />
<glyph unicode="&#x201e;" horiz-adv-x="903" d="M-39 -285l195 285h-125l49 293h274l-45 -268l-235 -310h-113zM358 -285l195 285h-125l49 293h275l-45 -268l-236 -310h-113z" />
<glyph unicode="&#x2022;" horiz-adv-x="1366" d="M416 702.5q0 63.5 22.5 117.5t62.5 94t95 63.5t116.5 23.5t117 -23.5t96.5 -63.5t64.5 -94t23.5 -118q0 -61 -23.5 -115.5t-64.5 -94t-96.5 -63t-117 -23.5t-115.5 22.5t-94 62t-63.5 94t-23.5 118z" />
<glyph unicode="&#x2026;" horiz-adv-x="2048" d="M100 0l52 309h311l-51 -309h-312zM782 0l52 309h311l-51 -309h-312zM1464 0l52 309h311l-51 -309h-312z" />
<glyph unicode="&#x2039;" horiz-adv-x="434" d="M68 504l213 293h100l-148 -299l68 -285h-96z" />
<glyph unicode="&#x203a;" horiz-adv-x="434" d="M51 213l148 299l-68 285h96l138 -291l-213 -293h-101z" />
<glyph unicode="&#x20ac;" d="M0 494l51 163h127q2 6 2 13.5t2 13.5q4 18 7.5 36.5t7.5 35.5h-156l51 164h156q41 104 101.5 192t138 151.5t171 98.5t200 35t183 -31t126 -86t73 -130t23.5 -161l-303 -22q0 31 -7.5 65.5t-24 64t-42 48t-62.5 18.5q-86 0 -151.5 -63.5t-110.5 -179.5h363l-52 -164h-358 l-18 -99h344l-51 -163h-308v-19q0 -55 8.5 -103t28 -85t52 -57.5t83.5 -20.5q25 0 52.5 7t58.5 26.5t60.5 55.5t58.5 95l282 -18q-43 -117 -108.5 -194t-140 -123t-153.5 -64.5t-149 -18.5q-109 0 -191.5 38t-138 106.5t-85 164t-33.5 210.5h-168z" />
<glyph unicode="&#x2122;" horiz-adv-x="1689" d="M106 1206l27 160h633l-27 -160h-209l-104 -618h-213l102 618h-209zM696 588l131 778h312l78 -442l223 442h321l-131 -778h-217l98 581l-297 -581h-129l-110 590l-98 -590h-181z" />
<glyph unicode="&#xe000;" horiz-adv-x="1020" d="M0 1020h1020v-1020h-1020v1020z" />
<glyph unicode="&#xfb01;" horiz-adv-x="1120" d="M53 0l133 786h-125l39 232h125q10 74 30.5 146.5t62.5 130t113 93t183 35.5q35 0 68 -2t66 -8l-19 -231q-25 6 -44 8t-34 2q-41 0 -65.5 -16.5t-39 -42t-21.5 -56t-11 -59.5h184l-39 -232h-184l-131 -786h-291zM606 0l170 1018h307l-170 -1018h-307zM788 1094l50 292h307 l-49 -292h-308z" />
<glyph unicode="&#xfb02;" horiz-adv-x="1120" d="M55 0l133 786h-129l39 232h129q14 127 52 207t90.5 124t116 59t128.5 15q31 0 62 -2t74 -8l-19 -227q-47 8 -74 8q-41 0 -64.5 -11.5t-37.5 -33t-23.5 -55t-17.5 -76.5h178l-39 -232h-178l-133 -786h-287zM604 0l230 1366h307l-230 -1366h-307z" />
<glyph unicode="&#xfb03;" horiz-adv-x="1853" d="M55 0l133 786h-120l28 232h131q12 94 38 170t76 129t129 81.5t196 28.5q41 0 67.5 -3t54.5 -7l-16 -235q-18 4 -39.5 6t-50.5 2q-53 0 -84 -14.5t-47 -38t-22.5 -54t-10.5 -65.5h199l-39 -232h-197l-131 -786h-295zM707 0l133 786h-121l29 232h131q12 94 37.5 170 t75.5 129t129 81.5t196 28.5q41 0 67.5 -3t55.5 -7l-17 -235q-18 4 -39.5 6t-50.5 2q-53 0 -83.5 -14.5t-47 -38t-22.5 -54t-11 -65.5h199l-39 -232h-196l-132 -786h-294zM1341 0l170 1018h306l-170 -1018h-306zM1524 1096l49 288h305l-49 -288h-305z" />
<glyph unicode="&#xfb04;" horiz-adv-x="1841" d="M55 0l133 786h-120l28 232h131q12 94 38 170t76 129t129 81.5t196 28.5q41 0 67.5 -3t54.5 -7l-16 -235q-18 4 -39.5 6t-50.5 2q-53 0 -84 -14.5t-47 -38t-22.5 -54t-10.5 -65.5h199l-39 -232h-197l-131 -786h-295zM707 0l133 786h-121l29 232h131q12 94 37.5 170 t75.5 129t129 81.5t196 28.5q41 0 67.5 -3t55.5 -7l-17 -235q-18 4 -39.5 6t-50.5 2q-53 0 -83.5 -14.5t-47 -38t-22.5 -54t-11 -65.5h199l-39 -232h-196l-132 -786h-294zM1341 0l228 1366h293l-228 -1366h-293z" />
</font>
</defs>
</svg>
